Сегодня идет свободное скачивание без начисления Download

Тутанхамон / Tutankhamun / Сезон: 1 / Серии: 1-2 из 4 (Питер Веббер / Peter Webber) [2016, Великобритания, Драма, HDTV 720p] DVO (Levelin)

Ответить на тему
 
Автор
Сообщение

Omen ®

Стаж: 5 лет 10 месяцев

Сообщений: 184329

Торрент-статистика

Пост 03-Ноя-2016 01:00

[Цитировать]

--Тутанхамон / Tutankhamun-- Год выпуска: 2016
Страна: Великобритания
Жанр: Драма
Продолжительность: ~45min.
Перевод: Двухголосый закадровый [Levelin]-Режиссёр: Питер Веббер / Peter Webber
В ролях: Джонатан Арис, Сэм Нил, Эми Рен, Леон Клайнгман, Адам Нилл, Николя Бокер, Вильям Эль Гарди, Мартин Хатсон, Эрнест Ст. Клэр, Катрин Стэдмен и др.-Описание: Замечательная история о случайной встрече, превратившей бедного археолога Говарда Картера в имя нарицательное после открытия гробницы мальчика-царя, Тутанхамона.-Релиз: -Перевод: Елена Антонова
Роли озвучивали:
- Ариса Лебедева
- Семён Ващенко-- -Качество: HDTV 720p
Контейнер: MKV
Видео: AVC, 1280x720, 16:9, 25.000 FPS, 2 511 kb/s
Аудио: AC3, 48.0 kHz, 2 channels, 192 kb/s
Субтитры: отсутствуют

MediaInfo

Format : Matroska
Format version : Version 4 / Version 2
File size : 867 MiB
Duration : 44 min
Overall bit rate : 2 705 kb/s
Encoded date : UTC 2016-10-27 19:35:03
Writing application : mkvmerge v8.3.0 ('Over the Horizon') 64bit
Writing library : libebml v1.3.1 + libmatroska v1.4.2
Video
ID : 1
Format : AVC
Format/Info : Advanced Video Codec
Format profile : High@L4.1
Format settings, CABAC : Yes
Format settings, ReFrames : 5 frames
Codec ID : V_MPEG4/ISO/AVC
Duration : 44 min
Bit rate : 2 511 kb/s
Width : 1 280 pixels
Height : 720 pixels
Display aspect ratio : 16:9
Frame rate mode : Constant
Frame rate : 25.000 FPS
Color space : YUV
Chroma subsampling : 4:2:0
Bit depth : 8 bits
Scan type : Progressive
Bits/(Pixel*Frame) : 0.109
Stream size : 805 MiB (93%)
Writing library : x264 core 148 r2705 3f5ed56
Encoding settings : cabac=1 / ref=5 / deblock=1:0:0 / analyse=0x3:0x113 / me=umh / subme=8 / psy=1 / psy_rd=1.00:0.00 / mixed_ref=1 / me_range=16 / chroma_me=1 / trellis=1 / 8x8dct=1 / cqm=0 / deadzone=21,11 / fast_pskip=1 / chroma_qp_offset=-2 / threads=18 / lookahead_threads=3 / sliced_threads=0 / nr=0 / decimate=1 / interlaced=0 / bluray_compat=0 / constrained_intra=0 / bframes=3 / b_pyramid=2 / b_adapt=2 / b_bias=0 / direct=3 / weightb=1 / open_gop=0 / weightp=2 / keyint=250 / keyint_min=25 / scenecut=40 / intra_refresh=0 / rc_lookahead=50 / rc=crf / mbtree=1 / crf=18.0 / qcomp=0.60 / qpmin=0 / qpmax=69 / qpstep=4 / ip_ratio=1.40 / aq=1:1.00
Language : English
Default : Yes
Forced : No
Audio
ID : 2
Format : AC-3
Format/Info : Audio Coding 3
Mode extension : CM (complete main)
Format settings, Endianness : Big
Codec ID : A_AC3
Duration : 44 min
Bit rate mode : Constant
Bit rate : 192 kb/s
Channel(s) : 2 channels
Channel positions : Front: L R
Sampling rate : 48.0 kHz
Frame rate : 31.250 FPS (1536 spf)
Compression mode : Lossy
Stream size : 61.6 MiB (7%)
Title : Levelin
Language : Russian
Default : Yes
Forced : No

Скриншоты

Внимание! Раздача ведется путем добавления новых серий!

Внимание! Раздача ведётся путём добавления новых серий; при каждом добавлении создётся новый торрент. Чтобы начать докачку новой серии, пользователям необходимо сделать следующее:
(1) остановить скачивание,
(2) удалить старый торрент у себя из клиента (старые серии удалять не надо),
(3) скачать новый торрент и запустить его у себя в клиенте вместо старого, при этом указать клиенту путь в старую папку куда и должно происходить скачивание новых серий.
Ваш клиент при этом должен произвести хеширование (проверку) старой папки (если не производит сам - помогите ему сделать это), и будет докачивать только те серии которых у вас ещё нет. Старые серии при этом не удаляются, а продолжают раздаваться!
Eсли вы уже удалили старые серии, то предотвратить повторную закачку старых серий можно, отжав галочку в соответсвующих местах при запуске нового торрента
Вне форума [Профиль] [ЛС]
Показать сообщения:    
Ответить на тему

Текущее время: Сегодня 10:00

Часовой пояс: GMT + 3



Вы не можете начинать темы
Вы не можете отвечать на сообщения
Вы не можете редактировать свои сообщения
Вы не можете удалять свои сообщения
Вы не можете голосовать в опросах
Вы не можете прикреплять файлы к сообщениям
Вы не можете скачивать файлы