Сегодня идет свободное скачивание без начисления Download

Атланта / Atlanta / Сезон: 1 / Серии: 1-8 из 10 (Дональд Гловер, Яница Браво, Хиро Мурай) [2016, США, Комедия, WEB-DL 720p] MVO (NewStudio) + Original

Ответить на тему
 
Автор
Сообщение

Omen ®

Стаж: 6 лет 1 месяц

Сообщений: 184308

Торрент-статистика

Пост 31-Окт-2016 01:00

[Цитировать]

Атланта / Atlanta Год выпуска: 2016
Страна: США
Жанр: Комедия
Продолжительность: ~ 00:25:00
Перевод: Профессиональный (многоголосый закадровый) NewStudio
Режиссёр: Дональд Гловер, Яница Браво, Хиро Мурай
В ролях: Дональд Гловер, Брэт Е. Бенсон, Карра Грир, Эмметт Хантер, Райан Ньютон, Лейкит Стэнфилд, Анджела Рэй, Терри Эбни, Джейн Адамс, Зак Аль-Чоклачи и др
Описание: Сериал рассказывает о двоюродных братьях, которые пробиваются на рэп-сцену Атланты, где успех им вовсе не гарантирован. История, как сама жизнь – смешная, серьёзная и грустная одновременно.

Качество: WEB-DL 720p
Контейнер: MKV
Видео: AVC/H.264, 1280x720 (16:9), ~4023 Kbps
Аудио: AC3, 384 kbps, 6 ch, 48 kHz [Rus]
Аудио 2: AC3, 384 kbps, 6 ch, 48 kHz [Eng]
Субтитры: Отсутствуют
Релиз без рекламы

Список серий

01. The Big Bang / Большой взрыв
02. Streets on Lock / В тюряге
03. Go for Broke / На мели
04. The Streisand Effect / Эффект Стрейзанд
05. Nobody Beats the Biebs / Никто не может тягаться с Бибсом
06. Value / Значение
07. B.A.N.
08. The Club / Клуб

MediaInfo

Общее
Atlanta - Атланта. Сезон 1. NewStudio. 720p\Atlanta.s01e01.WEB-DL.720p.NewStudio.mkv
Формат : Matroska
Версия формата : Version 4 / Version 2
Размер файла : 892 Мбайт
Продолжительность : 25 м.
Общий поток : 4888 Кбит/сек
Название фильма : Atlanta s01e01
Дата кодирования : UTC 2016-09-08 07:00:26
Программа кодирования : mkvmerge v6.9.1 ('Blue Panther') 64bit built on Apr 18 2014 18:23:38
Библиотека кодирования : libebml v1.3.0 + libmatroska v1.4.1
Видео
Идентификатор : 1
Формат : AVC
Формат/Информация : Advanced Video Codec
Профиль формата : High@L3.1
Параметр CABAC формата : Нет
Параметр ReFrames формата : 2 кадра
Идентификатор кодека : V_MPEG4/ISO/AVC
Продолжительность : 25 м.
Битрейт : 4023 Кбит/сек
Ширина : 1280 пикселей
Высота : 720 пикселей
Соотношение сторон : 16:9
Режим частоты кадров : Постоянный
Частота кадров : 23,976 кадра/сек
Цветовое пространство : YUV
Субдискретизация насыщенности : 4:2:0
Битовая глубина : 8 бит
Тип развёртки : Прогрессивная
Бит/(Пиксели*Кадры) : 0.182
Размер потока : 734 Мбайт (82%)
Язык : English
Default : Да
Forced : Нет
Основные цвета : BT.709
Характеристики трансфера : BT.709
Коэффициенты матрицы : BT.709
colour_range : Limited
Аудио #1
Идентификатор : 2
Формат : AC-3
Формат/Информация : Audio Coding 3
Расширение режима : CM (complete main)
Параметр Endianness формата : Big
Идентификатор кодека : A_AC3
Продолжительность : 25 м.
Вид битрейта : Постоянный
Битрейт : 384 Кбит/сек
Каналы : 6 каналов
Расположение каналов : Front: L C R, Side: L R, LFE
Частота : 48,0 КГц
Битовая глубина : 16 бит
Метод сжатия : С потерями
Размер потока : 70,0 Мбайт (8%)
Язык : Russian
Default : Да
Forced : Нет
Аудио #2
Идентификатор : 3
Формат : AC-3
Формат/Информация : Audio Coding 3
Расширение режима : CM (complete main)
Параметр Endianness формата : Big
Идентификатор кодека : A_AC3
Продолжительность : 25 м.
Вид битрейта : Постоянный
Битрейт : 384 Кбит/сек
Каналы : 6 каналов
Расположение каналов : Front: L C R, Side: L R, LFE
Частота : 48,0 КГц
Битовая глубина : 16 бит
Метод сжатия : С потерями
Размер потока : 70,0 Мбайт (8%)
Язык : English
Default : Нет
Forced : Нет
Текст
Идентификатор : 4
Формат : UTF-8
Идентификатор кодека : S_TEXT/UTF8
Идентификатор кодека/Информация : UTF-8 Plain Text
Язык : Russian
Default : Да
Forced : Да

Скриншоты

Вне форума [Профиль] [ЛС]
Похожие темы
Форум Тема Автор Торрент Отв. Посл. сообщение
./templates/default/images/folder_dl.gif Приключения, детектив, боевик, триллер Леонид Влодавец | Атлантическая премьера (2017) [MP3] }{@R0N
1 | 0

0 | 5537

13

2017-10-09 12:22
}{@R0N Последнее
Показать сообщения:    
Ответить на тему

Текущее время: Сегодня 23:42

Часовой пояс: GMT + 3



Вы не можете начинать темы
Вы не можете отвечать на сообщения
Вы не можете редактировать свои сообщения
Вы не можете удалять свои сообщения
Вы не можете голосовать в опросах
Вы не можете прикреплять файлы к сообщениям
Вы не можете скачивать файлы