Сегодня идет свободное скачивание без начисления Download

Грешники / Порочные / Vicious / Сезон: 3 / Серии: 1 из 1 (Эд Бай) [2016, Великобритания, ситуационная комедия, WEB-DL 1080p] MVO (Jaskier) + Original

Ответить на тему
 
Автор
Сообщение

Omen ®

Стаж: 5 лет 7 месяцев

Сообщений: 185427

Торрент-статистика

Пост 31-Окт-2016 01:00

[Цитировать]

Грешники / Vicious -Оригинальное название: Vicious
Русское название: Грешники
Год выпуска: 2016
Страна: Великобритания
Жанр: ситуационная комедия
Продолжительность: ~00:45:00-Перевод: Профессиональный (многоголосый закадровый) Студия Jaskier
Субтитры: нет-Режиссёр: Эд Бай-В ролях: Иэн МакКеллен, Дерек Джейкоби, Фрэнсис де ла Тур, Айван Реон, Филип Восс и Марсия Уоррен и др.-Описание: История о пожилой паре геев - Фредди и Стюарте, которые живут вместе не первый десяток лет, постоянно препираясь друг с другом, но, не смотря на это, они любят друг друга. Их друзья не отстают от главных героев: экстравагантная Вайолет, юный Эш, чудаковатая Пенелопа и Мейсон, такой же острый на язычок. Ситком, полный искрометного английского юмора и потрясающих актеров влюбляет в себя с первых минут просмотра.-Перевод: Алексей Матвеев-Сэмпл-Качество: WEB-DL 1080p
Формат: MKV
Видео кодек: AVC
Аудио кодек: AC3, E-AC3
Видео: AVC, 1920x1080 (16:9), 25 fps, ~11160 kbps, 0.204 bit/pixel-Аудио: AC3, 48 kHz, stereo, 192 kbps Русский
Аудио 2: E-AC3, 48 kHz, stereo, 128 kbps Английский-

Скриншоты:

MediaInfo

Код:
General
Unique ID                      : 175387926457169702132519935986813997728 (0x83F27C66E09F00CF8CCD0F3C334D92A0)
Complete name                  : Z:\HD\Vicious. Season 3 (WEB-DL l 1080p l Jaskier)\Vicious.s03e00.The.Finale.1080p.WEB-DL.AMZN.DD2.0.x264-Jaskier.mkv
Format                         : Matroska
Format version                 : Version 4 / Version 2
File size                      : 3.65 GiB
Duration                       : 46mn 51s
Overall bit rate mode          : Variable
Overall bit rate               : 11.1 Mbps
Encoded date                   : UTC 2016-10-30 10:53:47
Writing application            : mkvmerge v9.4.2 ('So High') 64bit
Writing library                : libebml v1.3.4 + libmatroska v1.4.5
DURATION                       : 00:46:51.424000000
NUMBER_OF_FRAMES               : 87857
NUMBER_OF_BYTES                : 67474176
_STATISTICS_WRITING_APP        : mkvmerge v9.4.2 ('So High') 64bit
_STATISTICS_WRITING_DATE_UTC   : 2016-10-30 10:53:47
_STATISTICS_TAGS               : BPS DURATION NUMBER_OF_FRAMES NUMBER_OF_BYTES
Video
ID                             : 1
Format                         : AVC
Format/Info                    : Advanced Video Codec
Format profile                 : High@L4.0
Format settings, CABAC         : Yes
Format settings, ReFrames      : 4 frames
Codec ID                       : V_MPEG4/ISO/AVC
Duration                       : 46mn 51s
Bit rate mode                  : Variable
Bit rate                       : 10.6 Mbps
Maximum bit rate               : 15.0 Mbps
Width                          : 1 920 pixels
Height                         : 1 080 pixels
Display aspect ratio           : 16:9
Frame rate                     : 25.000 fps
Color space                    : YUV
Chroma subsampling             : 4:2:0
Bit depth                      : 8 bits
Scan type                      : Progressive
Bits/(Pixel*Frame)             : 0.204
Stream size                    : 3.47 GiB (95%)
Writing library                : x264 core 148 r2623 d5b2374
Encoding settings              : cabac=1 / ref=4 / deblock=1:-1:-1 / analyse=0x3:0x133 / me=umh / subme=9 / psy=1 / psy_rd=1.00:0.15 / mixed_ref=1 / me_range=24 / chroma_me=1 / trellis=2 / 8x8dct=1 / cqm=0 / deadzone=21,11 / fast_pskip=1 / chroma_qp_offset=-3 / threads=34 / lookahead_threads=5 / sliced_threads=0 / nr=150 / decimate=1 / interlaced=0 / bluray_compat=0 / constrained_intra=0 / bframes=8 / b_pyramid=2 / b_adapt=2 / b_bias=0 / direct=3 / weightb=1 / open_gop=0 / weightp=2 / keyint=125 / keyint_min=63 / scenecut=0 / intra_refresh=0 / rc_lookahead=125 / rc=crf / mbtree=1 / crf=18.0 / qcomp=0.60 / qpmin=0 / qpmax=69 / qpstep=4 / vbv_maxrate=15000 / vbv_bufsize=31250 / crf_max=0.0 / nal_hrd=vbr / filler=0 / ip_ratio=1.40 / aq=3:1.00
Default                        : Yes
Forced                         : No
Color primaries                : BT.709-5, BT.1361, IEC 61966-2-4, SMPTE RP177
Transfer characteristics       : BT.709-5, BT.1361
Matrix coefficients            : BT.709-5, BT.1361, IEC 61966-2-4 709, SMPTE RP177
Audio #1
ID                             : 2
Format                         : AC-3
Format/Info                    : Audio Coding 3
Mode extension                 : CM (complete main)
Format settings, Endianness    : Big
Codec ID                       : A_AC3
Duration                       : 46mn 51s
Bit rate mode                  : Constant
Bit rate                       : 192 Kbps
Channel(s)                     : 2 channels
Channel positions              : Front: L R
Sampling rate                  : 48.0 KHz
Bit depth                      : 16 bits
Compression mode               : Lossy
Stream size                    : 64.3 MiB (2%)
Language                       : Russian
Default                        : Yes
Forced                         : No
Audio #2
ID                             : 3
Format                         : E-AC-3
Format/Info                    : Audio Coding 3
Format settings, Endianness    : Big
Codec ID                       : A_EAC3
Duration                       : 46mn 51s
Bit rate mode                  : Constant
Bit rate                       : 128 Kbps
Channel(s)                     : 2 channels
Channel positions              : Front: L R
Sampling rate                  : 48.0 KHz
Compression mode               : Lossy
Stream size                    : 42.9 MiB (1%)
Language                       : English
Default                        : No
Forced                         : No
Вне форума [Профиль] [ЛС]
Показать сообщения:    
Ответить на тему

Текущее время: Сегодня 13:49

Часовой пояс: GMT + 3



Вы не можете начинать темы
Вы не можете отвечать на сообщения
Вы не можете редактировать свои сообщения
Вы не можете удалять свои сообщения
Вы не можете голосовать в опросах
Вы не можете прикреплять файлы к сообщениям
Вы не можете скачивать файлы