Сегодня идет свободное скачивание без начисления Download

Флэш / The Flash / Сезон: 3 / Серии: 1-4 из 23 (Дэвид Наттер) [2016, США, фантастика, фэнтези, боевик, драма, приключения, WEB-DL 1080p] MVO (LostFilm) + Original + Sub (Eng)

Ответить на тему
 
Автор
Сообщение

Omen ®

Стаж: 5 лет 9 месяцев

Сообщений: 184402

Торрент-статистика

Пост 30-Окт-2016 01:00

[Цитировать]

-Флэш / The Flash
- -Год выпуска: 2016.
Страна: США.
Жанр: фантастика, фэнтези, боевик, драма, приключения.
Продолжительность: ~00:45:00.-Перевод: | Профессиональный (многоголосый закадровый) LostFilm |.-Режиссёр: Дэвид Наттер.-В ролях:
Грант Гастин, Кэндис Паттон, Рик Коснетт, Даниэль Панабэйкер, Карлос Валдес, Томас Кэвэна, Джесси Л. Мартин, Патрик Сабонгуй, Грег Финли, Вентворт Миллер.-Описание:
Из-за несчастного случая судмедэксперт Барри Аллен приобретает способность передвигаться с невероятной скоростью. Этот случай делает его супергероем, которым он всегда мечтал стать...
После финала второго сезона, Барри ждёт новое самое серьёзное испытание, из всех что ему выпадали. Его семья. Сможет ли он отказаться от счастливого мира, созданного своими руками и исправить ошибку?-Доп. Информация:
Релиз от
by SerGV.
Работа со звуком: SerGV.
  • Звуковая дорожка № 1 была получена путем наложения выделенных голосов на центр оригинала.-Качество: WEB-DL 1080p.
    Контейнер: MKV.-Видео: 1916x1074at, 23.976 fps, MPEG-4 AVC, ~5048 kbps avg.
    Аудио#1: Russian: 48 kHz, AC3, 3/2 (L,C,R,l,r) + LFE ch, ~384.00 kbps avg |Многоголосый закадровый, LostFilm|.
    Аудио#2: English: 48 kHz, AC3, 3/2 (L,C,R,l,r) + LFE ch, ~384.00 kbps avg.
    Субтитры: English (SRT).-

Знаете ли вы, что...

  • Актёр Марк Хэмилл, играющий роль Джеймса Джесси (Трикстер), играл эту же роль в сериале «Флэш» (1990).
  • В 10 серии 1 сезона, когда Айрис отдает Барри его старый портфель, он достает из него комикс «Космический Призрак».
  • Актер Джон Уэсли Шипп, играющий в сериале отца Барри Аллена — Генри Аллена, играл самого Флэша в сериале «Флэш» (1990-1991).
  • Актриса Аманда Пэйс снова играет роль Тины МакГи, как и в сериале «Флэш» (1990), но на этот раз она работает на конкурирующую фирму Star Labs.
  • Актёр Вито Д`Амброзио играет роль мэра Цэнтрал Сити — Энтони Беллоуза. В сериале «Флэш» (1990) он играл роль офицера полиции Тони Беллоуза.

Список серий

  • 01. Flashpoint./Флэшпойнт.
  • 02. «Paradox»/Парадокс.
  • 03. «Magenta»/Маджента.
  • 04. «The New Rogues»/Новые Негодяи.

MediaInfo

GeneralUnique ID : 175954147185061586313207667565344888525 (0x845F893D3678D547BEA00E7DF04496CD)Complete name : ...\!ФЛЭШ!\The.Flash.S03.1080p.WEB-DL.Rus.Eng.CasStudio\The.Flash.S03E01.1080p.WEB-DL.Rus.Eng.CasStudio.mkvFormat : MatroskaFormat version : Version 4 / Version 2File size : 1.76 GiBDuration : 42mn 23sOverall bit rate : 5 934 KbpsMovie name : The Flash (2016) 3x01 @ release by SerGV for CasStudio.TVEncoded date : UTC 2016-10-21 03:12:49Writing application : mkvmerge v9.4.2 ('So High') 64bitWriting library : libebml v1.3.4 + libmatroska v1.4.5Attachements : cover.jpg
VideoID : 1Format : AVCFormat/Info : Advanced Video CodecFormat profile : High@L4Format settings, CABAC : YesFormat settings, ReFrames : 4 framesCodec ID : V_MPEG4/ISO/AVCDuration : 42mn 23sBit rate : 5 048 KbpsWidth : 1 916 pixelsHeight : 1 074 pixelsDisplay aspect ratio : 16:9Frame rate mode : ConstantFrame rate : 23.976 fpsColor space : YUVChroma subsampling : 4:2:0Bit depth : 8 bitsScan type : ProgressiveBits/(Pixel*Frame) : 0.102Stream size : 1.50 GiB (85%)Language : EnglishDefault : YesForced : NoColor range : LimitedColor primaries : BT.709Transfer characteristics : BT.709Matrix coefficients : BT.709
Audio #1ID : 2Format : AC-3Format/Info : Audio Coding 3Mode extension : CM (complete main)Format settings, Endianness : BigCodec ID : A_AC3Duration : 42mn 23sBit rate mode : ConstantBit rate : 384 KbpsChannel(s) : 6 channelsChannel positions : Front: L C R, Side: L R, LFESampling rate : 48.0 KHzCompression mode : LossyStream size : 116 MiB (6%)Title : DD 5.1 @ 384 kbps - Многоголосый закадровый, LostFilmLanguage : RussianDefault : YesForced : No
Audio #2ID : 3Format : AC-3Format/Info : Audio Coding 3Mode extension : CM (complete main)Format settings, Endianness : BigCodec ID : A_AC3Duration : 42mn 23sBit rate mode : ConstantBit rate : 384 KbpsChannel(s) : 6 channelsChannel positions : Front: L C R, Side: L R, LFESampling rate : 48.0 KHzCompression mode : LossyStream size : 116 MiB (6%)Title : DD 5.1 @ 384 kbps - OriginalLanguage : EnglishDefault : NoForced : No
TextID : 4Format : UTF-8Codec ID : S_TEXT/UTF8Codec ID/Info : UTF-8 Plain TextLanguage : EnglishDefault : NoForced : No

Скриншоты

Внимание! Раздача ведётся путём добавления новых серий

Внимание! Раздача ведётся путём добавления новых серий; при каждом добавлении создаётся новый торрент. Чтобы начать докачку новой серии, пользователям необходимо сделать следующее:
(1) остановить скачивание,
(2) удалить старый торрент у себя из клиента (старые серии удалять не надо),
(3) скачать новый торрент и запустить его у себя в клиенте вместо старого, при этом указать клиенту путь в старую папку куда и должно происходить скачивание новых серий.
Ваш клиент при этом должен произвести хеширование (проверку) старой папки (если не производит сам - помогите ему сделать это), и будет докачивать только те серии которых у вас ещё нет. Старые серии при этом не удаляются, а продолжают раздаваться!
Eсли вы уже удалили старые серии, то предотвратить повторную закачку старых серий можно, отжав галочку в соответствующих местах при запуске нового торрента. По возможности, желательно не удалять старые серии как можно дольше чтобы релизёр не столько продолжал раздавать старые серии, а смог сконцентрироваться на новых.

| Сэмпл | КиноПоиск | IMDB | MyShows |
Вне форума [Профиль] [ЛС]
Показать сообщения:    
Ответить на тему

Текущее время: Сегодня 00:15

Часовой пояс: GMT + 3



Вы не можете начинать темы
Вы не можете отвечать на сообщения
Вы не можете редактировать свои сообщения
Вы не можете удалять свои сообщения
Вы не можете голосовать в опросах
Вы не можете прикреплять файлы к сообщениям
Вы не можете скачивать файлы