Сегодня идет свободное скачивание без начисления Download

Все схвачено / Man with a plan / Сезон: 1 / Серии: 1 из 10 (Джеймс Берроуз) [2016, США, комедия, WEB-DL 1080p] MVO (Alternative Production) + Original

Ответить на тему
 
Автор
Сообщение

Omen ®

Стаж: 5 лет 9 месяцев

Сообщений: 184393

Торрент-статистика

Пост 28-Окт-2016 01:00

[Цитировать]

Все схвачено / Man with a plan
- Год выпуска: 2016
Страна: США
Жанр: комедия
Продолжительность: 00:20:00- Перевод: Любительский (многоголосый закадровый) Alternative Production- Режиссёр: Джеймс Берроуз
В ролях:Мэтт ЛеБлан, Лиза Снайдер, Кевин Нилон, Диана-Мария Рива, Джессика Чаффин, Грэйс Кауфман и др.- Описание:
Алам Бернс всю свою жизнь провел в командировках, пытаясь хоть как-то заработать деньги для семьи. Однако его супруге было далеко не весело в одиночестве. Кажется, что Мари одна занимается воспитанием детей. Но случается так, что главным героям приходится поменяться местами. Теперь Адам ведет домашнее хозяйство и воспитывает троих детишек. Мужчина начинает чувствовать, что не справляется, хотя ему это занятие казалось довольно простым и ненапряженным. В первые же дни Адам чувствует, что попал в самое пекло ада с маленькими чертятами, из которого выбраться невероятно сложно!- - Качество: WEB-DL 1080p
Формат: MKV
Видео кодек: H.264
Аудио кодек: AC3
Видео: H.264, 1920x1080 (16:9), 23.976 fps, 5 204 Kbps, 0.105 bit/pixel
Аудио 1: AC3 Dolby Digital, 48 kHz, 3/2 (L,C,R,l,r) + LFE ch, 384 kbps
Аудио 2: AC3 Dolby Digital, 48 kHz, 3/2 (L,C,R,l,r) + LFE ch, 384 kbps
Субтитры: отсутствуют
Релиз

MediaInfo

General
Unique ID : 194493715166045168514492009357090180759 (0x925220834A7B54C8A9295D5DF84F4E97)
Format : Matroska
Format version : Version 4 / Version 2
File size : 917 MiB
Duration : 21mn 27s
Overall bit rate : 5 974 Kbps
Encoded date : UTC 2016-10-26 20:03:43
Writing application : mkvmerge v8.3.0 ('Over the Horizon') 64bit
Writing library : libebml v1.3.1 + libmatroska v1.4.2
Attachments : poster (17).jpg
Video
ID : 1
Format : AVC
Format/Info : Advanced Video Codec
Format profile : High@L4
Format settings, CABAC : Yes
Format settings, ReFrames : 4 frames
Codec ID : V_MPEG4/ISO/AVC
Duration : 21mn 27s
Bit rate : 5 204 Kbps
Width : 1 920 pixels
Height : 1 080 pixels
Display aspect ratio : 16:9
Frame rate mode : Constant
Frame rate : 23.976 (24000/1001) fps
Color space : YUV
Chroma subsampling : 4:2:0
Bit depth : 8 bits
Scan type : Progressive
Bits/(Pixel*Frame) : 0.105
Stream size : 798 MiB (87%)
Language : English
Default : Yes
Forced : No
Color range : Limited
Color primaries : BT.709
Transfer characteristics : BT.709
Matrix coefficients : BT.709
Audio #1
ID : 2
Format : AC-3
Format/Info : Audio Coding 3
Mode extension : CM (complete main)
Format settings, Endianness : Big
Codec ID : A_AC3
Duration : 21mn 27s
Bit rate mode : Constant
Bit rate : 384 Kbps
Channel(s) : 6 channels
Channel positions : Front: L C R, Side: L R, LFE
Sampling rate : 48.0 KHz
Frame rate : 31.250 fps (1536 spf)
Compression mode : Lossy
Stream size : 58.9 MiB (6%)
Title : Alt Pro
Language : Russian
Default : Yes
Forced : No
Audio #2
ID : 3
Format : AC-3
Format/Info : Audio Coding 3
Mode extension : CM (complete main)
Format settings, Endianness : Big
Codec ID : A_AC3
Duration : 21mn 27s
Bit rate mode : Constant
Bit rate : 384 Kbps
Channel(s) : 6 channels
Channel positions : Front: L C R, Side: L R, LFE
Sampling rate : 48.0 KHz
Frame rate : 31.250 fps (1536 spf)
Compression mode : Lossy
Stream size : 58.9 MiB (6%)
Language : English
Default : No
Forced : No

Скриншоты

Внимание! Раздача ведётся путём добавления новых серий.

Внимание! Раздача ведётся путём добавления новых серий; при каждом добавлении создётся новый торрент. Чтобы начать докачку новой серии, пользователям необходимо сделать следующее:
  • Остановить скачивание.
  • Удалить старый торрент у себя из клиента (старые серии удалять не надо).
  • Скачать новый торрент и запустить его у себя в клиенте вместо старого, при этом указать клиенту путь в старую папку куда и должно происходить скачивание новых серий.
    Ваш клиент при этом должен произвести хеширование (проверку) старой папки (если не производит сам - помогите ему сделать это), и будет докачивать только те серии которых у вас ещё нет. Старые серии при этом не удаляются, а продолжают раздаваться!
    Eсли вы уже удалили старые серии, то предотвратить повторную закачку старых серий можно, отжав галочку в соответсвующих местах при запуске нового торрента. По возможности, желательно не удалять старые серии как можно дольше чтобы релизёр не столько продолжал раздавать старые серии, а смог сконцентрироваться на новых.
    [url=viewtopic.php?t=609808]Как закачать отдельный файл из торрента или докачать ранее пропущенные файлы торрента![/url]
Вне форума [Профиль] [ЛС]
Показать сообщения:    
Ответить на тему

Текущее время: Сегодня 23:30

Часовой пояс: GMT + 3



Вы не можете начинать темы
Вы не можете отвечать на сообщения
Вы не можете редактировать свои сообщения
Вы не можете удалять свои сообщения
Вы не можете голосовать в опросах
Вы не можете прикреплять файлы к сообщениям
Вы не можете скачивать файлы