Сегодня идет свободное скачивание без начисления Download

Александр Медведев | Фотография по полкам. Образ и позировка. Часть 1 (2016) PCRec [H.264/1080p]

Ответить на тему
 
Автор
Сообщение

Omen ®

Стаж: 6 лет 3 месяца

Сообщений: 184291

Торрент-статистика

Пост 27-Окт-2016 01:00

[Цитировать]

Фотография по полкам. Образ и позировка. Часть 1- Автор (режиссер): Александр Медведев
Производство: amlab.me
Жанр: Съемка фото
Описание:
В этой части мы покажем, как начать создавать «умные» фотографии, работая над продумыванием образа и позировкой модели. Это важно для того, чтобы Ваши работы не были пустыми, а выполняли одну из заложенных в них функций: эстетическую, идейную, эмоциональную или рекламную.
Вы научитесь:
  • Прорабатывать элементы образа;
  • Передавать идею и настроение за счет позы и образа;
  • Проектировать образ с учетом различных концепций и стилей:
  • Сздавать историю из примитивного портрета (разберем этапы от «зайкографии» до продуманной фотографии);
  • Использовать символизм и метафоры в своих работах;
  • Избегать ошибок в работе с моделью.
    Продолжительность: 01:37:25
    Качество видео: PCRec
    Видео: AVC/H.264, 1920x1080, ~4 132 kb/s
    Аудио: AAC, 2 ch, 256 kb/s, VBR

Mediainfo:

Александр Медведев - Фотография по полкам. Образ и позировка. Часть 1 (2016)\01 - Образ\01 - Эволюция образа.MP4
Format : MPEG-4
Format profile : Base Media / Version 2
Codec ID : mp42 (mp42/mp41/isom/avc1)
File size : 451 MiB
Duration : 14 min
Overall bit rate mode : Variable
Overall bit rate : 4 392 kb/s
Video
ID : 1
Format : AVC
Format/Info : Advanced Video Codec
Format profile : High@L4
Format settings, CABAC : Yes
Format settings, ReFrames : 4 frames
Codec ID : avc1
Codec ID/Info : Advanced Video Coding
Duration : 14 min
Bit rate : 4 132 kb/s
Width : 1 920 pixels
Height : 1 080 pixels
Display aspect ratio : 16:9
Frame rate mode : Constant
Frame rate : 25.000 FPS
Color space : YUV
Chroma subsampling : 4:2:0
Bit depth : 8 bits
Scan type : Progressive
Bits/(Pixel*Frame) : 0.080
Stream size : 424 MiB (94%)
Writing library : x264 core 148 r11 a01e339
Encoding settings : cabac=1 / ref=4 / deblock=1:0:0 / analyse=0x3:0x113 / me=umh / subme=8 / psy=1 / psy_rd=1.00:0.00 / mixed_ref=1 / me_range=16 / chroma_me=1 / trellis=1 / 8x8dct=1 / cqm=0 / deadzone=21,11 / fast_pskip=1 / chroma_qp_offset=-2 / threads=34 / lookahead_threads=5 / sliced_threads=0 / nr=0 / decimate=1 / interlaced=0 / bluray_compat=0 / stitchable=1 / constrained_intra=0 / bframes=3 / b_pyramid=2 / b_adapt=2 / b_bias=0 / direct=3 / weightb=1 / open_gop=0 / weightp=2 / keyint=infinite / keyint_min=25 / scenecut=40 / intra_refresh=0 / rc_lookahead=50 / rc=crf / mbtree=1 / crf=20.0 / qcomp=0.60 / qpmin=5 / qpmax=69 / qpstep=4 / vbv_maxrate=4950 / vbv_bufsize=13500 / crf_max=0.0 / nal_hrd=none / filler=0 / ip_ratio=1.40 / aq=1:1.00
Encoded date : UTC 2016-04-01 20:38:42
Tagged date : UTC 2016-04-01 20:38:42
Color range : Limited
Color primaries : BT.709
Transfer characteristics : BT.709
Matrix coefficients : BT.709
Audio
ID : 2
Format : AAC
Format/Info : Advanced Audio Codec
Format profile : LC
Codec ID : 40
Duration : 14 min
Bit rate mode : Variable
Bit rate : 256 kb/s
Channel(s) : 2 channels
Channel positions : Front: L R
Sampling rate : 48.0 kHz
Frame rate : 46.875 FPS (1024 spf)
Compression mode : Lossy
Stream size : 26.3 MiB (6%)
Encoded date : UTC 2016-04-01 20:38:42
Tagged date : UTC 2016-04-01 20:38:42
Скриншоты:
       
Вне форума [Профиль] [ЛС]
Похожие темы
Форум Тема Автор Торрент Отв. Посл. сообщение
./templates/default/images/folder_dl.gif Отечественные cериалы Вторые ( 1-8 серия из 8 ) (Александр Даруга) [2010 г.] (Драма, военный) [DVDRip] nsa1977
1 | 0

0 | 872

10

2011-05-09 17:05
nsa1977 Последнее
./templates/default/images/folder_dl.gif Отечественные cериалы Защита Красина / Сезон: 1 Серии: 1-12 из 12 (Алексей Шикин) [2006, детектив, криминал, DVB] Omen
0 | 1

0 | 457

0

2013-01-13 22:04
Omen Последнее
./templates/default/images/folder_dl.gif Обучающее видео Алекс Мэй | Академия секса (2012) [SATRip] UndegraundMen
1 | 0

0 | 11677

706

2013-09-30 23:05
UndegraundMen Последнее
./templates/default/images/folder_dl.gif Обучающее видео Александр Свет | Профессиональная обработка RAW в Capture One Pro 7 (2013) [PCRec] UndegraundMen
1 | 0

0 | 3518

50

2013-11-28 23:01
UndegraundMen Последнее
./templates/default/images/folder_dl.gif Историческая литература Семен Федосеев, Алексей Ардашев | Учебник выживания снайпера. Стреляй редко, но метко! (2014) [FB2] Omen
1 | 0

0 | 943

10

2014-09-01 11:46
Omen Последнее
./templates/default/images/folder_dl.gif Обучающее видео Александр Медведев | 10 ноу-хау на съёмке, до которых вы не додумались (2013) PCRec Omen
1 | 0

0 | 1242

37

2015-04-03 20:51
Omen Последнее
./templates/default/images/folder_dl.gif Обучающее видео Алекс Мэй | Сексуальные позиции. Для максимального наслаждения (2013) [CamRip] Omen
1 | 0

0 | 2160

208

2015-05-07 00:08
Omen Последнее
./templates/default/images/folder_dl.gif Обучающее видео Александр Амбалов | Цветкор в Premiere (2017) PCRec Omen
1 | 0

0 | 688

11

2016-03-09 06:10
Omen Последнее
./templates/default/images/folder_dl.gif Обучающее видео Александр Свет | Capture One Pro. Профессиональная обработка RAW (2017) PCRec Omen
1 | 0

0 | 410

6

2016-03-09 06:45
Omen Последнее
./templates/default/images/folder_dl.gif Обучающее видео Александр Медведев | Фотография по полкам. Свет. Часть 2 (2016) PCRec [H.264/1080p] Omen
1 | 0

0 | 652

10

2016-03-09 15:01
Omen Последнее
Показать сообщения:    
Ответить на тему

Текущее время: Сегодня 03:29

Часовой пояс: GMT + 3



Вы не можете начинать темы
Вы не можете отвечать на сообщения
Вы не можете редактировать свои сообщения
Вы не можете удалять свои сообщения
Вы не можете голосовать в опросах
Вы не можете прикреплять файлы к сообщениям
Вы не можете скачивать файлы