Сегодня идет свободное скачивание без начисления Download

Чёрное зеркало / Black Mirror / Сезон: 3 / Серии: 1-6 из 6 (Отто Баферст, Эрос Лин, Брайан Уэлш, Оуэн Харрис, Карл Тиббеттс) [2016, Великобритания, Фантастика, триллер, драма, WEBRip 720p] Original + Rus Sub (notabenoid) + Eng sub

Ответить на тему
 
Автор
Сообщение

Omen ®

Стаж: 5 лет 9 месяцев

Сообщений: 184393

Торрент-статистика

Пост 26-Окт-2016 01:00

[Цитировать]

Чёрное зеркало / Black Mirror
Год выпуска: 2016
Страна: Великобритания
Жанр: Фантастика, триллер, драма
Продолжительность: 60:00
Перевод: Субтитры notabenoid
Режиссёр: Отто Баферст, Эрос Лин, Брайан Уэлш, Оуэн Харрис, Карл Тиббеттс
В ролях: Тоби Кеббелл, Джоди Уиттакер, Том Каллен, Дэниэл Калуя, Джессика Браун-Финдлэй, Рори Киннер, Лидия Уилсон, Руперт Эверетт, Джулия Дэвис, Баши, Брайони Нилан-Фрэнсис, Линдси Дункан, Дональд Самптер, Том Гудман-Хилл, Анна Уилсон-Джонс, Патрик Кеннеди, Аластер Маккензи, Четна Пандья и д.р.
Описание: «Чёрное зеркало» — британский фантастический телесериал, созданный по сценарию Чарли Брукера. Эпизоды не связаны между собой ни сюжетом, ни актёрами, ни временем или местом повествования. По словам Брукера, все сюжеты объединяет лишь сатира на тот образ жизни, что распространён в современном обществе. Сквозная тема — влияние информационных технологий на человеческие отношения.
Качество: WEBRip 720p
Контейнер: MKV
Видео: MPEG4 Video (H264) 1280x674 23.976fps ~2596 kbps, ~0.118 bit/pixel
Аудио: английский Dolby AC3 48000Hz 6ch 640kbps
Субтитры: Русскоязычные (notabenoid)
Субтитры: Англоязычные

MediaInfo

Общее
Уникальный идентификатор : 181913565480473629955212670258287323409 (0x88DB473EFD937CC7A6EC661149ADA911)
Полное имя : H:\Black Mirror\black.mirror.s03e01.720p.webrip.x264.mkv
Формат : Matroska
Версия формата : Version 4 / Version 2
Размер файла : 1,38 Гбайт
Продолжительность : 1 ч. 2 м.
Общий поток : 3149 Кбит/сек
Название фильма : black.mirror.s03e01.720p.skgtv
Дата кодирования : UTC 2016-10-21 13:48:39
Программа кодирования : mkvmerge v8.9.0 ('Father Daughter') 32bit
Библиотека кодирования : libebml v1.3.3 + libmatroska v1.4.4
Видео
Идентификатор : 1
Формат : AVC
Формат/Информация : Advanced Video Codec
Профиль формата : High@L4.1
Параметр CABAC формата : Да
Параметр ReFrames формата : 5 кадров
Идентификатор кодека : V_MPEG4/ISO/AVC
Продолжительность : 1 ч. 2 м.
Битрейт : 2507 Кбит/сек
Ширина : 1280 пикселей
Высота : 674 пикселя
Соотношение сторон : 1,899
Режим частоты кадров : Постоянный
Частота кадров : 23,976 (24000/1001) кадра/сек
Цветовое пространство : YUV
Субдискретизация насыщенности : 4:2:0
Битовая глубина : 8 бит
Тип развёртки : Прогрессивная
Бит/(Пиксели*Кадры) : 0.121
Размер потока : 1,10 Гбайт (80%)
Библиотека кодирования : x264 core 148 r2705 3f5ed56
Настройки программы : cabac=1 / ref=5 / deblock=1:-3:-3 / analyse=0x3:0x113 / me=umh / subme=8 / psy=1 / psy_rd=1.00:0.00 / mixed_ref=1 / me_range=16 / chroma_me=1 / trellis=1 / 8x8dct=1 / cqm=0 / deadzone=21,11 / fast_pskip=1 / chroma_qp_offset=-2 / threads=12 / lookahead_threads=2 / sliced_threads=0 / nr=0 / decimate=1 / interlaced=0 / bluray_compat=0 / constrained_intra=0 / bframes=3 / b_pyramid=2 / b_adapt=2 / b_bias=0 / direct=3 / weightb=1 / open_gop=0 / weightp=2 / keyint=250 / keyint_min=23 / scenecut=40 / intra_refresh=0 / rc_lookahead=50 / rc=crf / mbtree=1 / crf=18.0 / qcomp=0.60 / qpmin=0 / qpmax=69 / qpstep=4 / ip_ratio=1.40 / aq=1:1.00
Язык : English
Default : Да
Forced : Нет
Цветовой диапазон : Limited
Коэффициенты матрицы : BT.709
Аудио
Идентификатор : 2
Формат : AC-3
Формат/Информация : Audio Coding 3
Расширение режима : CM (complete main)
Параметр Endianness формата : Big
Идентификатор кодека : A_AC3
Продолжительность : 1 ч. 2 м.
Вид битрейта : Постоянный
Битрейт : 640 Кбит/сек
Каналы : 6 каналов
Расположение каналов : Front: L C R, Side: L R, LFE
Частота : 48,0 КГц
Частота кадров : 31,250 кадров/сек (1536 spf)
Метод сжатия : С потерями
Размер потока : 287 Мбайт (20%)
Язык : English
Default : Да
Forced : Нет

Скриншоты

Вне форума [Профиль] [ЛС]
Похожие темы
Форум Тема Автор Торрент Отв. Посл. сообщение
./templates/default/images/folder_dl.gif T Новинки (CamRip|TS) Черновик (Сергей Мокрицкий) [2018 г., Фантастика, TS 720] }{@R0N
1 | 0

0 | 334

15

2018-05-27 21:14
}{@R0N Последнее
./templates/default/images/folder_dl.gif Новинки (HD|DVD|BD|WEB|TV|SAT|PDTV|-Rip) Черновик (Сергей Мокрицкий) [2018, Фантастика, WEB-DLRip] Theseus
1 | 0

0 | 209

11

2018-08-06 20:59
Theseus Последнее
./templates/default/images/folder_dl.gif Новинки (BD|HDTV|DVD) Черновик (Сергей Мокрицкий) [2018, Фантастика, WEB-DL 1080p] Theseus
1 | 0

0 | 118

6

2018-08-06 21:00
Theseus Последнее
Показать сообщения:    
Ответить на тему

Текущее время: Сегодня 23:31

Часовой пояс: GMT + 3



Вы не можете начинать темы
Вы не можете отвечать на сообщения
Вы не можете редактировать свои сообщения
Вы не можете удалять свои сообщения
Вы не можете голосовать в опросах
Вы не можете прикреплять файлы к сообщениям
Вы не можете скачивать файлы