Сегодня идет свободное скачивание без начисления Download

Ходячие мертвецы / The Walking Dead / Сезон: 7 / Серии: 1 из 16 (Эрнест Р. Дикерсон, Грег Никотеро, Гай Ферленд) [2016, США, Ужасы, триллер, драма, HDTVRip 720p] Original + Rus Sub (N-Team) + Eng Sub

Ответить на тему
 
Автор
Сообщение

Omen ®

Стаж: 5 лет 11 месяцев

Сообщений: 184329

Торрент-статистика

Пост 25-Окт-2016 01:00

[Цитировать]

Ходячие мертвецы / The Walking Dead
Год выпуска: 2016
Страна: США
Жанр: Ужасы, триллер, драма
Продолжительность: ~46 минут
Перевод: Субтитры N-Team
Режиссёр: Эрнест Р. Дикерсон, Грег Никотеро, Гай Ферленд
В ролях: Эндрю Линкольн, Скотт Уилсон, Данай Джекесай Гурира, Дэвид Моррисси, Стивен Юн, Лорен Коэн, Чендлер Риггз, Норман Ридус, Мелисса Сюзанн МакБрайд, Эмили Кинни, Чад Коулмэн, Сонеква Мартин
Описание: Сериал «Ходячие мертвецы» снят по одноимённому комиксу и рассказывает о небольшой группе выживших людей после зомби-апокалипсиса, что изо дня в день пытаются выжить и сохранить человечность в новом мире.
В седьмом сезоне Рик с командой будут противостоять Нигану, злодею из 6-го сезона, узнают, что мир выживших гораздо больше и не крутится вокруг Рика и его людей.
Сэмпл: http://multi-up.com/1124277
Качество: HDTVRip 720p
Контейнер: MKV
Видео: H.264, 1280x718 (16:9), 23.976 fps, 7252 kbps, 0.329 bit/pixel
Аудио: AC3, 48 KHz, 6 ch, 384 Kbps, [Eng]
Субтитры: софтсаб(SRT), русские, английские

Список серий

1. The Day Will Come When You Won't Be / Придёт день, когда тебя не станет

MediaInfo

General
Unique ID : 6498833739139702311027572995959250967 (0x4E3A13DDC85DCBAA9F8DE3D9DC76017)
Complete name : D:\Видео\The Walking Dead Season 7 HD 720p [N-Team]\The.Walking.Dead.S07E01.720p [N-Team].mkv
Format : Matroska
Format version : Version 4 / Version 2
File size : 2.52 GiB
Duration : 46mn 17s
Overall bit rate : 7 791 Kbps
Encoded date : UTC 2016-10-24 02:07:41
Writing application : mkvmerge v9.0.1 ('Obstacles') 64bit
Writing library : libebml v1.3.3 + libmatroska v1.4.4
Video
ID : 1
Format : AVC
Format/Info : Advanced Video Codec
Format profile : High@L4.1
Format settings, CABAC : Yes
Format settings, ReFrames : 5 frames
Codec ID : V_MPEG4/ISO/AVC
Duration : 46mn 17s
Bit rate : 7 252 Kbps
Width : 1 280 pixels
Height : 718 pixels
Display aspect ratio : 16:9
Frame rate mode : Constant
Frame rate : 23.976 fps
Color space : YUV
Chroma subsampling : 4:2:0
Bit depth : 8 bits
Scan type : Progressive
Bits/(Pixel*Frame) : 0.329
Stream size : 2.34 GiB (93%)
Writing library : x264 core 148 r2705 3f5ed56
Encoding settings : cabac=1 / ref=5 / deblock=1:0:0 / analyse=0x3:0x113 / me=umh / subme=8 / psy=1 / psy_rd=1.00:0.00 / mixed_ref=1 / me_range=16 / chroma_me=1 / trellis=1 / 8x8dct=1 / cqm=0 / deadzone=21,11 / fast_pskip=1 / chroma_qp_offset=-2 / threads=22 / lookahead_threads=3 / sliced_threads=0 / nr=0 / decimate=1 / interlaced=0 / bluray_compat=0 / constrained_intra=0 / bframes=3 / b_pyramid=2 / b_adapt=2 / b_bias=0 / direct=3 / weightb=1 / open_gop=0 / weightp=2 / keyint=250 / keyint_min=23 / scenecut=40 / intra_refresh=0 / rc_lookahead=50 / rc=crf / mbtree=1 / crf=18.0 / qcomp=0.60 / qpmin=0 / qpmax=69 / qpstep=4 / ip_ratio=1.40 / aq=1:1.00
Default : Yes
Forced : No
Matrix coefficients : BT.709
Color range : Limited
Audio
ID : 2
Format : AC-3
Format/Info : Audio Coding 3
Mode extension : CM (complete main)
Format settings, Endianness : Big
Codec ID : A_AC3
Duration : 46mn 17s
Bit rate mode : Constant
Bit rate : 384 Kbps
Channel(s) : 6 channels
Channel positions : Front: L C R, Side: L R, LFE
Sampling rate : 48.0 KHz
Bit depth : 16 bits
Compression mode : Lossy
Stream size : 127 MiB (5%)
Default : Yes
Forced : No

Скриншоты

Внимание! Раздача ведётся путём добавления новых серий

Внимание! Раздача ведётся путём добавления новых серий; при каждом добавлении создётся новый торрент. Чтобы начать докачку новой серии, пользователям необходимо сделать следующее:
-Остановить скачивание.
-Удалить старый торрент у себя из клиента (старые серии удалять не надо).
-Скачать новый торрент и запустить его у себя в клиенте вместо старого, при этом указать клиенту путь в старую папку куда и должно происходить скачивание новых серий.
Ваш клиент при этом должен произвести хеширование (проверку) старой папки (если не производит сам - помогите ему сделать это), и будет докачивать только те серии которых у вас ещё нет. Старые серии при этом не удаляются, а продолжают раздаваться!
Если вы уже удалили старые серии, то предотвратить повторную закачку старых серий можно, отжав галочку в соответствующих местах при запуске нового торрента. По возможности, желательно не удалять старые серии как можно дольше чтобы релизёр не столько продолжал раздавать старые серии, а смог сконцентрироваться на новых.
Вне форума [Профиль] [ЛС]
Показать сообщения:    
Ответить на тему

Текущее время: Сегодня 01:08

Часовой пояс: GMT + 3



Вы не можете начинать темы
Вы не можете отвечать на сообщения
Вы не можете редактировать свои сообщения
Вы не можете удалять свои сообщения
Вы не можете голосовать в опросах
Вы не можете прикреплять файлы к сообщениям
Вы не можете скачивать файлы