Сегодня идет свободное скачивание без начисления Download

Чёрное зеркало / Black Mirror / Сезон: 3 / Серии: 1 из 6 (Отто Баферст, Эрос Лин, Брайан Уэлш, Оуэн Харрис, Карл Тиббеттс и др.) [2016, США, Фантастика, триллер, драма, WEBRip 1080p] MVO (Jaskier) + Original + Subs (Rus,Eng,Fre,Ger,Ita,Spa)

Ответить на тему
 
Автор
Сообщение

Omen ®

Стаж: 6 лет 1 месяц

Сообщений: 184308

Торрент-статистика

Пост 25-Окт-2016 01:00

[Цитировать]

Чёрное зеркало / Black Mirror
Год выпуска: 2016
Страна: США
Жанр: Фантастика, триллер, драма
Продолжительность: 01:00:00
Перевод: Профессиональный (многоголосый закадровый) Jaskier
Режиссёр: Отто Баферст, Эрос Лин, Брайан Уэлш, Оуэн Харрис, Карл Тиббеттс и др.
В ролях: Тоби Кеббелл, Джоди Уиттакер, Том Каллен, Дэниэл Калуя, Джессика Браун-Финдлэй, Рори Киннер, Лидия Уилсон, Руперт Эверетт, Джулия Дэвис, Баши, Брайони Нилан-Фрэнсис, Линдси Дункан, Дональд Самптер, Том Гудман-Хилл, Анна Уилсон-Джонс, Патрик Кеннеди, Аластер Маккензи, Четна Пандья и др.
Описание: «Чёрное зеркало» — британский фантастический телесериал, созданный по сценарию Чарли Брукера. Эпизоды не связаны между собой ни сюжетом, ни актёрами, ни временем или местом повествования. По словам Брукера, все сюжеты объединяет лишь сатира на тот образ жизни, что распространён в современном обществе. Сквозная тема — влияние информационных технологий на человеческие отношения.
Качество: WEBRip 1080p
Контейнер: MKV
Видео: AVC, 1920x1012 (1.897), 25.000 fps ~10000 kbps
Аудио: AC3, 48 kHz, 6 ch, 384 kbps Русский
Аудио 2: AC3, 48 kHz, 6 ch, 384 kbps Оригинал (Английский)
Субтитры: Русские, английские, испанские, французские, немецкие, итальянские
ВНИМАНИЕ ИМЕЕТСЯ НЕНОРМАТИВНАЯ ЛЕКСИКА! ПЕРЕВОД БЕЗ ЦЕНЗУРЫ!

Список серий

01. Падение / Nosedive

Релиз

Khoren
Перевод: Профессиональный (многоголосый закадровый) студия Jaskier
русские субтитры http://notabenoid.org/book/66444/338439 - kammilla, Catch_22, Vanuuushka, dveikut, userspectr, dolliem, Justeaze, SkyProse,
Mihayllo, Hell_00, maxibeginner, dan25zet, haltaction
Релиз без рекламы

MediaInfo

General
Unique ID : 206081900364147546070330976720998201152 (0x9B09EE2788EB958EAB80AE57E59D7740)
Complete name : D:\Torrent\Black.Mirror.S03.1080p.WEBRip.DD5.1.x264-Jaskier\Black.Mirror.S03E01.Nosedive.1080p.WEBRip.DD5.1.x264-Jaskier.mkv
Format : Matroska
Format version : Version 4 / Version 2
File size : 5.11 GiB
Duration : 1 h 2 min
Overall bit rate : 11.7 Mb/s
Encoded date : UTC 2016-10-24 15:49:40
Writing application : mkvmerge v9.5.0 ('Quiet Fire') 64bit
Writing library : libebml v1.3.4 + libmatroska v1.4.5
Cover : Yes
Attachments : cover.mirror.jpg
Video
ID : 1
Format : AVC
Format/Info : Advanced Video Codec
Format profile : High@L4.1
Format settings, CABAC : Yes
Format settings, ReFrames : 4 frames
Codec ID : V_MPEG4/ISO/AVC
Duration : 1 h 2 min
Bit rate : 10.9 Mb/s
Width : 1 920 pixels
Height : 1 012 pixels
Display aspect ratio : 1.897
Frame rate mode : Constant
Frame rate : 25.000 FPS
Color space : YUV
Chroma subsampling : 4:2:0
Bit depth : 8 bits
Scan type : Progressive
Bits/(Pixel*Frame) : 0.224
Stream size : 4.77 GiB (93%)
Writing library : x264 core 148 r2721+7 72d53ab / tmod 162ad1b X86_64
Encoding settings : cabac=1 / ref=4 / deblock=1:-3:-3 / analyse=0x3:0x133 / me=umh / subme=11 / psy=1 / fade_compensate=0.00 / psy_rd=1.05:0.15 / mixed_ref=1 / me_range=48 / chroma_me=1 / trellis=2 / 8x8dct=1 / cqm=0 / deadzone=6,6 / fast_pskip=0 / chroma_qp_offset=-3 / threads=12 / lookahead_threads=3 / sliced_threads=0 / nr=0 / decimate=0 / interlaced=0 / bluray_compat=0 / constrained_intra=0 / fgo=0 / bframes=10 / b_pyramid=2 / b_adapt=2 / b_bias=0 / direct=3 / weightb=1 / open_gop=0 / weightp=2 / keyint=250 / keyint_min=25 / scenecut=40 / intra_refresh=0 / rc=crf / mbtree=0 / crf=17.0000 / qcomp=0.75 / qpmin=0:0:0 / qpmax=69:69:69 / qpstep=4 / ip_ratio=1.10 / pb_ratio=1.10 / aq=3:0.75 / aq-sensitivity=10.00 / aq-factor=1.00:1.00:1.00 / aq2=0 / aq3=0
Language : English
Default : Yes
Forced : No
Audio #1
ID : 2
Format : AC-3
Format/Info : Audio Coding 3
Mode extension : CM (complete main)
Format settings, Endianness : Big
Codec ID : A_AC3
Duration : 1 h 2 min
Bit rate mode : Constant
Bit rate : 384 kb/s
Channel(s) : 6 channels
Channel positions : Front: L C R, Side: L R, LFE
Sampling rate : 48.0 kHz
Frame rate : 31.250 FPS (1536 spf)
Compression mode : Lossy
Stream size : 172 MiB (3%)
Language : Russian
Default : Yes
Forced : No
Audio #2
ID : 3
Format : AC-3
Format/Info : Audio Coding 3
Mode extension : CM (complete main)
Format settings, Endianness : Big
Codec ID : A_AC3
Duration : 1 h 2 min
Bit rate mode : Constant
Bit rate : 384 kb/s
Channel(s) : 6 channels
Channel positions : Front: L C R, Side: L R, LFE
Sampling rate : 48.0 kHz
Frame rate : 31.250 FPS (1536 spf)
Compression mode : Lossy
Stream size : 172 MiB (3%)
Language : English
Default : No
Forced : No
Text #1
ID : 4
Format : UTF-8
Codec ID : S_TEXT/UTF8
Codec ID/Info : UTF-8 Plain Text
Duration : 1 h 1 min
Bit rate : 96 b/s
Count of elements : 721
Stream size : 43.2 KiB (0%)
Title : Russian
Language : Russian
Default : No
Forced : No
Text #2
ID : 5
Format : UTF-8
Codec ID : S_TEXT/UTF8
Codec ID/Info : UTF-8 Plain Text
Duration : 1 h 0 min
Bit rate : 58 b/s
Count of elements : 711
Stream size : 25.8 KiB (0%)
Title : English
Language : English
Default : No
Forced : No
Text #3
ID : 6
Format : UTF-8
Codec ID : S_TEXT/UTF8
Codec ID/Info : UTF-8 Plain Text
Duration : 1 h 1 min
Bit rate : 64 b/s
Count of elements : 851
Stream size : 29.1 KiB (0%)
Title : English (SDH)
Language : English
Default : No
Forced : No
Text #4
ID : 7
Format : UTF-8
Codec ID : S_TEXT/UTF8
Codec ID/Info : UTF-8 Plain Text
Duration : 1 h 1 min
Bit rate : 60 b/s
Count of elements : 653
Stream size : 27.3 KiB (0%)
Title : French
Language : French
Default : No
Forced : No
Text #5
ID : 8
Format : UTF-8
Codec ID : S_TEXT/UTF8
Codec ID/Info : UTF-8 Plain Text
Duration : 1 h 1 min
Bit rate : 58 b/s
Count of elements : 670
Stream size : 26.3 KiB (0%)
Title : German
Language : German
Default : No
Forced : No
Text #6
ID : 9
Format : UTF-8
Codec ID : S_TEXT/UTF8
Codec ID/Info : UTF-8 Plain Text
Duration : 1 h 1 min
Bit rate : 61 b/s
Count of elements : 651
Stream size : 27.7 KiB (0%)
Title : Italian
Language : Italian
Default : No
Forced : No
Text #7
ID : 10
Format : UTF-8
Codec ID : S_TEXT/UTF8
Codec ID/Info : UTF-8 Plain Text
Duration : 1 h 1 min
Bit rate : 56 b/s
Count of elements : 710
Stream size : 25.5 KiB (0%)
Title : Spanish
Language : Spanish
Default : No
Forced : No

Скриншоты



Внимание! Раздача ведётся путём добавления новых серий

Внимание! Раздача ведётся путём добавления новых серий; при каждом добавлении создаётся новый торрент. Чтобы начать докачку новой серии, пользователям необходимо сделать следующее:
(1) остановить скачивание,
(2) удалить старый торрент у себя из клиента (старые серии удалять не надо),
(3) скачать новый торрент и запустить его у себя в клиенте вместо старого, при этом указать клиенту путь в старую папку куда и должно происходить скачивание новых серий.
Ваш клиент при этом должен произвести хеширование (проверку) старой папки (если не производит сам - помогите ему сделать это), и будет докачивать только те серии которых у вас ещё нет. Старые серии при этом не удаляются, а продолжают раздаваться!
Eсли вы уже удалили старые серии, то предотвратить повторную закачку старых серий можно, отжав галочку в соответствующих местах при запуске нового торрента. По возможности, желательно не удалять старые серии как можно дольше чтобы релизёр не столько продолжал раздавать старые серии, а смог сконцентрироваться на новых.
Вне форума [Профиль] [ЛС]
Показать сообщения:    
Ответить на тему

Текущее время: Сегодня 04:46

Часовой пояс: GMT + 3



Вы не можете начинать темы
Вы не можете отвечать на сообщения
Вы не можете редактировать свои сообщения
Вы не можете удалять свои сообщения
Вы не можете голосовать в опросах
Вы не можете прикреплять файлы к сообщениям
Вы не можете скачивать файлы