Сегодня идет свободное скачивание без начисления Download

Комиссар полиции Мартин Бек / Beck / Сезон: 1-3 / Серии: 1-24 из 24 (Харальд Хамрелль, Челль Сундвалль, Пелле Сет) [1997-2007, Швеция, детектив, DVDRip] MVO (Русский репортаж)

Ответить на тему
 
Автор
Сообщение

Omen ®

Стаж: 5 лет 9 месяцев

Сообщений: 184433

Торрент-статистика

Пост 25-Окт-2016 01:00

[Цитировать]

Комиссар полиции Мартин Бек / Beck
Год выпуска: 1997-2007
Страна: Швеция
Жанр: детектив
Продолжительность: 01:30:00
Перевод: Профессиональный (многоголосый закадровый) Русский репортаж
Режиссёр: Харальд Хамрелль, Челль Сундвалль, Пелле Сет
В ролях: Питер Абер, Микаэл Персбрандт, Ингвар Хирдвалль, Ребека Хемсе, Мари Горанзон, Манс Натанаэльсон, Пер Морберг, Инг-Мари Карлссон
Описание: Мартин Бек — первоклассный полицейский и блестящий следователь. Бек очень хороший, добрый, уравновешенный человек, а также весьма терпеливый. Аналитический склад ума и умение дедуктивно мыслить в сочетании с хорошими чертами характера помогают Беку в раскрытии преступлений. От него ушла жена, в отношениях с дочкой у него недопонимание, а из друзей лишь Гунвальд Ларссон и сосед. Истории о нём стали бестселлерами в Швеции.
Доп. информация:
Запись звука: teftel, HPotter
Сведение: Beer kolesik Drinkers
Рип: HPotter
Сэмпл: http://multi-up.com/1124209
Качество: DVDRip
Формат: AVI
Видео: XVID, 856x480, 25.000 к/с, 1481 битрейт, 0.144 bit/pixel
Аудио: MP3, 44,1 КГц, 2 кнала, 128 Кбит/сек
Субтитры: отсутствуют

MediaInfo

Общее
Полное имя : C:\Users\User\Desktop\Videos\Beck\Beck.SE.S02E03.Kartellen.avi
Формат : AVI
Формат/Информация : Audio Video Interleave
Профиль формата : OpenDML
Размер файла : 1,01 Гбайт
Продолжительность : 1 ч. 28 м.
Общий поток : 1625 Кбит/сек
Программа кодирования : MEncoder SVN-r33883(20110719-gcc4.5.2)
Библиотека кодирования : MPlayer
Видео
Идентификатор : 0
Формат : MPEG-4 Visual
Профиль формата : Advanced Simple@L5
Параметр BVOP формата : 2
Параметр QPel формата : Нет
Параметр GMC формата : Без точки перехода
Параметр матрицы формата : Default (H.263)
Идентификатор кодека : XVID
Идентификатор кодека/Подсказка : XviD
Продолжительность : 1 ч. 28 м.
Битрейт : 1481 Кбит/сек
Ширина : 856 пикселей
Высота : 480 пикселей
Соотношение сторон : 1,85:1
Соотношение сторон в оригинале : 16:9
Частота кадров : 25,000 кадров/сек
Цветовое пространство : YUV
Субдискретизация насыщенности : 4:2:0
Битовая глубина : 8 бит
Тип развёртки : Прогрессивная
Метод сжатия : С потерями
Бит/(Пиксели*Кадры) : 0.144
Размер потока : 938 Мбайт (91%)
Библиотека кодирования : XviD 1.2.1 (UTC 2008-12-04)
Аудио
Идентификатор : 1
Формат : MPEG Audio
Версия формата : Version 1
Профиль формата : Layer 3
Режим : Joint stereo
Расширение режима : MS Stereo
Идентификатор кодека : 55
Идентификатор кодека/Подсказка : MP3
Продолжительность : 1 ч. 28 м.
Вид битрейта : Постоянный
Битрейт : 128 Кбит/сек
Каналы : 2 канала
Частота : 44,1 КГц
Метод сжатия : С потерями
Задержка видео : 40 мс.
Размер потока : 81,1 Мбайт (8%)
Выравнивание : Соединение по промежуткам
Продолжительность промежутка : 26 мс. (0,65 видеокадр)
Время предзагрузки промежутка : 522 мс.
Библиотека кодирования : LAME3.98.4

Скриншоты

Вне форума [Профиль] [ЛС]
Показать сообщения:    
Ответить на тему

Текущее время: Сегодня 16:42

Часовой пояс: GMT + 3



Вы не можете начинать темы
Вы не можете отвечать на сообщения
Вы не можете редактировать свои сообщения
Вы не можете удалять свои сообщения
Вы не можете голосовать в опросах
Вы не можете прикреплять файлы к сообщениям
Вы не можете скачивать файлы