Сегодня идет свободное скачивание без начисления Download

Класс / Class / Сезон: 1 / Серии: 1-2 (8) (Патрик Несс) [2016, Великобритания, фантастика, приключения, HDTVip 720p] Original + Rus Sub (TrueTransLate)

Ответить на тему
 
Автор
Сообщение

Omen ®

Стаж: 5 лет 6 месяцев

Сообщений: 186946

Торрент-статистика

Пост 25-Окт-2016 01:00

[Цитировать]

Класс / Class
Год выпуска: 2016
Страна: Великобритания
Жанр: фантастика, приключения
Продолжительность: ~45 мин.
Перевод: Субтитры от TrueTransLate
Сценарист: Патрик Несс
В ролях: Грег Остин (Greg Austin), Фэди Альсаид (Fady Elsayed), Софи Хопкинс (Sophie Hopkins), Вивиан Опара (Vivian Oparah), Кэтрин Келли (Katherine Kelly) и др.
Описание: Время видело ваши лица. А время ничего не забывает...
Что случится, если ваша планета будет уничтожена, а в живых останетесь лишь вы? Что случится, если легендарный во всём пространстве и времени человек найдёт вам укрытие? Но что случится, если враги вас выследят и захотят убить? И, что хуже всего, если вы не готовились к выпускным экзаменам?..
Как и у всех школьников, у четвёрки ребят из Коал Хилл есть свои тайны и желания. Они сталкиваются со своими худшими страхами, стараются уместить в жизни друзей, родителей, школу, секс, горе и, возможно, конец света.
С самого начала существования вселенной "Доктора Кто" школа Коал Хилл была её огромной частью. Но множество лет путешествий истончили стены времени и пространства. Через них пытается что-то прорваться. Оно ждёт момента убить всё и вся и погрузить нас всех во тьму.
Доп. информация:
Перевод: Little_Squirrel для TrueTransLate
Сэмпл: http://multi-up.com/1124172
Качество: HDTVRip 720p
Контейнер: MKV
Видео: AVC / 1280:718 / 16:9 / 525.000 fps / 3175 kbps / 0.119 bit/pixel / High Level 4.1
Аудио (eng): AC-3 / 48 kHz / 6 ch / 384 kbps
Субтитры: русские (TrueTransLate)

Список серий

1. For Tonight We Might Die (Ибо сегодня мы можем погибнуть)
2. The Coach with the Dragon Tattoo (Тренер с татуировкой дракона)

MediaInfo

General
Unique ID: 155376284514551686867280036935541793437 (0x74E462473B805F62F598D1C4C261229D)
Complete name: D:\Видео\Doctor Who\Class Season 1 720p TrueTransLate\Class.s01e01.For.Tonight.We.Might.Die.720p.HDTV.KILLERS.mkv
Format: Matroska
Format version: Version 4 / Version 2
File size: 1.12 GiB
Duration: 50mn 27s
Overall bit rate: 3 175 Kbps
Encoded date: UTC 2016-10-23 02:45:42
Writing application: mkvmerge v9.0.1 ('Obstacles') 64bit
Writing library: libebml v1.3.3 + libmatroska v1.4.4
Video
ID: 1
Format: AVC
Format/Info: Advanced Video Codec
Format profile: High@L4.1
Format settings, CABAC: Yes
Format settings, ReFrames: 5 frames
Codec ID: V_MPEG4/ISO/AVC
Duration: 50mn 27s
Bit rate: 2 728 Kbps
Width: 1 280 pixels
Height: 718 pixels
Display aspect ratio: 16:9
Frame rate mode: Constant
Frame rate: 25.000 fps
Color space: YUV
Chroma subsampling: 4:2:0
Bit depth: 8 bits
Scan type: Progressive
Bits/(Pixel*Frame): 0.119
Stream size: 985 MiB (86%)
Writing library: x264 core 148 r2721 72d53ab
Encoding settings: cabac=1 / ref=5 / deblock=1:0:0 / analyse=0x3:0x113 / me=hex / subme=8 / psy=1 / psy_rd=1.00:0.00 / mixed_ref=1 / me_range=16 / chroma_me=1 / trellis=2 / 8x8dct=1 / cqm=0 / deadzone=21,11 / fast_pskip=1 / chroma_qp_offset=-2 / threads=22 / lookahead_threads=3 / sliced_threads=0 / nr=0 / decimate=1 / interlaced=0 / bluray_compat=0 / constrained_intra=0 / bframes=3 / b_pyramid=2 / b_adapt=1 / b_bias=0 / direct=3 / weightb=1 / open_gop=0 / weightp=2 / keyint=250 / keyint_min=25 / scenecut=40 / intra_refresh=0 / rc_lookahead=50 / rc=crf / mbtree=1 / crf=18.0 / qcomp=0.60 / qpmin=0 / qpmax=69 / qpstep=4 / ip_ratio=1.40 / aq=1:1.00
Default: Yes
Forced: No
Matrix coefficients: BT.709
Color range: Limited
Audio
ID: 2
Format: AC-3
Format/Info: Audio Coding 3
Mode extension: CM (complete main)
Format settings, Endianness: Big
Codec ID: A_AC3
Duration: 50mn 27s
Bit rate mode: Constant
Bit rate: 384 Kbps
Channel(s): 6 channels
Channel positions: Front: L C R, Side: L R, LFE
Sampling rate: 48.0 KHz
Bit depth: 16 bits
Compression mode: Lossy
Stream size: 139 MiB (12%)
Default: Yes
Forced: No

Внимание! Раздача ведётся путём добавления новых серий

Внимание! Раздача ведётся путём добавления новых серий; при каждом добавлении создаётся новый торрент. Чтобы начать докачку новой серии, пользователям необходимо сделать следующее:
(1) остановить скачивание,
(2) удалить старый торрент у себя из клиента (старые серии удалять не надо),
(3) скачать новый торрент и запустить его у себя в клиенте вместо старого, при этом указать клиенту путь в старую папку куда и должно происходить скачивание новых серий.
Ваш клиент при этом должен произвести хеширование (проверку) старой папки (если не производит сам - помогите ему сделать это), и будет докачивать только те серии которых у вас ещё нет. Старые серии при этом не удаляются, а продолжают раздаваться!
Eсли вы уже удалили старые серии, то предотвратить повторную закачку старых серий можно, отжав галочку в соответствующих местах при запуске нового торрента. По возможности, желательно не удалять старые серии как можно дольше чтобы релизёр не столько продолжал раздавать старые серии, а смог сконцентрироваться на новых.

Скриншоты


Вне форума [Профиль] [ЛС]
Похожие темы
Форум Тема Автор Торрент Отв. Посл. сообщение
./templates/default/images/folder_dl.gif Справочники, энциклопедии и словари В. Калмыкова, В. Темкин | Шедевры мировой живописи. Классический натюрморт [2009] [PDF] UndegraundMen
1 | 0

0 | 355

1

2013-03-04 22:20
UndegraundMen Последнее
./templates/default/images/folder_dl.gif Обучающее видео [Next Day Video] PyCon US 2013. Инструментарий для работы с классами в Python. Р.Хеттинджер [2013, RUS] Omen
1 | 0

0 | 437

9

2013-05-04 15:55
Omen Последнее
./templates/default/images/folder_dl.gif Обучающее видео [Profileschool] Мастер-класс: Конвертация RAW от А до Я [2014, RUS] Omen
1 | 0

0 | 1201

40

2015-09-23 03:10
Omen Последнее
./templates/default/images/folder_dl.gif Обучающее видео Алексей Довгуля | Имиджевая фотография съемка и обработка. Мастер-класс (2017) PCRec Omen
1 | 0

0 | 393

8

2016-03-09 09:17
Omen Последнее
./templates/default/images/folder_dl.gif Обучающее видео Андрей Журавлев. | Мастер-класс. Цветокоррекция по числам. (2013) WEBRip [H.264] moralis
1 | 0

0 | 1421

29

2016-04-03 14:30
moralis Последнее
./templates/default/images/folder_dl.gif Техническая и научно-популярная литература М.В. Адаменко | Основы классической криптологии. Секреты шифров и кодов (2016) [PDF] }{@R0N
1 | 0

0 | 16458

15

2017-08-05 13:07
}{@R0N Последнее
Показать сообщения:    
Ответить на тему

Текущее время: Сегодня 02:31

Часовой пояс: GMT + 3



Вы не можете начинать темы
Вы не можете отвечать на сообщения
Вы не можете редактировать свои сообщения
Вы не можете удалять свои сообщения
Вы не можете голосовать в опросах
Вы не можете прикреплять файлы к сообщениям
Вы не можете скачивать файлы