Today is a free download without charge Download

Дмитрий Валак | JavaScript для верстальщика (2016) PCRec

Reply to topic
 
Author
Message

}{@R0N ®

Longevity: 3 years 7 months

Posts: 7481

Торрент-статистика

Post 24-Oct-2016 23:21

[Quote]

JavaScript для верстальщика - Автор (режиссер): Дмитрий Валак
Жанр: Верстка, JavaScript
Описание:
Курс не для новичков в верстке, поэтому если вы ни разу не верстали и не пытались использовать js, то Вам пока рано.
Пройдя курс Вы:
Научитесь писать скрипты
Научитесь использовать готовые решения
Изучите JQuery, JQuery UI
Научитесь грамотно работать с Bootstrap
Научитесь устанавливать библиотеки при помощи Bower
Изучите автоматизацию верстки при помощи Gulp
Изучите Git
Продолжительность: 10:58:12
Качество видео: PCRec
Видео: AVC/H.264, 1920x1080, ~343 kbps
Аудио: AAC, 2 ch, 102 kbps

Mediainfo:

Общее
Полное имя : D:\JavaScript для верстальщика\content\video\part1\lesson1.mp4
Формат : MPEG-4
Профиль формата : Base Media
Идентификатор кодека : isom (isom/iso2/avc1/mp41)
Размер файла : 20,6 Мбайт
Продолжительность : 6 м. 25 с.
Режим общего битрейта : Переменный
Общий поток : 448 Кбит/сек
Дата кодирования : UTC 2016-07-12 14:27:05
Дата пометки : UTC 2016-07-12 14:27:05
Программа кодирования : Lavf54.63.104
Видео
Идентификатор : 1
Формат : AVC
Формат/Информация : Advanced Video Codec
Профиль формата : Main@L4
Параметр CABAC формата : Да
Параметр ReFrames формата : 1 кадр
Идентификатор кодека : avc1
Идентификатор кодека/Информация : Advanced Video Coding
Продолжительность : 6 м. 25 с.
Битрейт : 343 Кбит/сек
Номинальный битрейт : 3115 Кбит/сек
Ширина : 1920 пикселей
Высота : 1080 пикселей
Соотношение сторон : 16:9
Режим частоты кадров : Постоянный
Частота кадров : 12,000 кадров/сек
Цветовое пространство : YUV
Субдискретизация насыщенности : 4:2:0
Битовая глубина : 8 бит
Тип развёртки : Прогрессивная
Бит/(Пиксели*Кадры) : 0.014
Размер потока : 15,8 Мбайт (77%)
Библиотека кодирования : x264 core 129
Настройки программы : cabac=1 / ref=1 / deblock=1:0:0 / analyse=0x1:0x131 / me=dia / subme=2 / psy=1 / psy_rd=1.00:0.00 / mixed_ref=0 / me_range=16 / chroma_me=1 / trellis=0 / 8x8dct=0 / cqm=0 / deadzone=21,11 / fast_pskip=1 / chroma_qp_offset=0 / threads=4 / lookahead_threads=1 / sliced_threads=0 / nr=0 / decimate=1 / interlaced=0 / bluray_compat=0 / constrained_intra=0 / bframes=0 / weightp=2 / keyint=250 / keyint_min=25 / scenecut=40 / intra_refresh=0 / rc_lookahead=40 / rc=abr / mbtree=1 / bitrate=3115 / ratetol=1.0 / qcomp=0.60 / qpmin=10 / qpmax=51 / qpstep=4 / ip_ratio=1.41 / aq=1:1.00
Дата кодирования : UTC 2016-07-12 14:27:05
Дата пометки : UTC 2016-07-12 14:27:05
Аудио
Идентификатор : 2
Формат : AAC
Формат/Информация : Advanced Audio Codec
Профиль формата : LC
Идентификатор кодека : 40
Продолжительность : 6 м. 25 с.
Duration_FirstFrame : 70 мс.
Вид битрейта : Переменный
Битрейт : 102 Кбит/сек
Максимальный битрейт : 176 Кбит/сек
Каналы : 2 канала
Расположение каналов : Front: L R
Частота : 44,1 КГц
Частота кадров : 43,066 кадра/сек (1024 spf)
Метод сжатия : С потерями
Размер потока : 4,67 Мбайт (23%)
Default : Да
Alternate group : 1
Дата кодирования : UTC 2016-07-12 14:27:05
Дата пометки : UTC 2016-07-12 14:27:05

Дополнительная информация:

Раздел 1. Основы
ВСТУПЛЕНИЕ
НАЧАЛО РАБОТЫ
СЕЛЕКТОРЫ
СОЗДАНИЕ ПЛАВНОГО СКРОЛЛА
ФИКСИРУЕМ МЕНЮ ПРИ СКРОЛЛЕ
УЛУЧШАЕМ ПЛАВНЫЙ СКРОЛЛ
СОЗДАНИЕ МОДАЛЬНОГО ОКНА
СОЗДАНИЕ АККОРДЕОНА
СОЗДАНИЕ АККОРДЕОНА 2
ВСПЛЫВАЮЩИЕ ПОДСКАЗКИ
УЛУЧШЕНИЕ МОДАЛЬНОГО ОКНА
УЛУЧШЕНИЕ МОДАЛЬНОГО ОКНА 2
ПОКАЗАТЬ/СКРЫТЬ ТЕКСТ
Раздел 2. Работа со скриптами.
УСТАНОВКА NODE, GIT, BOWER
СОЗДАНИЕ СЛАЙДЕРА
АНИМАЦИЯ ПРИ СКРОЛЛЕ
PLACEHOLDER + HTML5SHIV
РАБОТА И СТИЛИЗАЦИЯ GOOGLE MAPS
БЕГУЩИЙ СЧЕТЧИК
АВТОНАБОР ТЕКСТА
HOVERDELAY (
СТИЛИЗАЦИЯ CHECKBOX/RADIO
ВАЛИДАЦИЯ ФОРМ
СТИЛИЗАЦИЯ INPUT[TYPE=RANGE]
НЕСТАНДАРТНАЯ СЕТКА
"ЛИПКИЙ" САЙДБАР
СТИЛИЗАЦИЯ СКРОЛЛБАРА
СТИЛИЗАЦИЯ СКРОЛЛБАРА 2
ZOOM ИЗОБРАЖЕНИЯ ПРИ НАВОДЕ
РАБОТА И СТИЛИЗАЦИЯ MAP
СКРОЛЛ СЛАЙДАМИ
СОРТИРОВКА ДАННЫХ ТАБЛИЦ
РАБОТА С ТАБЛИЦАМИ
ВСПЛЫВАЮЩАЯ ГАЛЕРЕЯ
Раздел 3. GULP, BOOTSTRAP, JQUERY UI, GIT.
АВТОМАТИЗАЦИЯ СБОРКИ ПРОЕКТА
МОДУЛЬНАЯ РАБОТА С BOOTSTRAP
МОДУЛЬНАЯ РАБОТА С JQUERY UI Ч.1
МОДУЛЬНАЯ РАБОТА С JQUERY UI Ч.2
РАБОТА С GIT
GITIGNORE
Скриншоты:
       
Other forum [Profile] [PM]
Similar theme
Forum Topic Author Torrent Replies Last Post
./templates/default/images/folder_dl.gif Обучающее видео Сергей Змеев, Дмитрий Красавин | Биржевой инвестор (2011) CamRip [H.264] moralis
0 | 1

2 | 276

0

2019-06-21 12:52
darkos_bot Latest
./templates/default/images/folder_dl.gif Фантастика, фэнтези, ужасы, мистика Сергей Чекмаев, Дмитрий Володихин (сост.) | День коронации [сборник] (2018) [FB2] }{@R0N
1 | 0

0 | 788

4

2018-10-08 18:22
}{@R0N Latest
./templates/default/images/folder_dl.gif Фантастика, фэнтези, ужасы, мистика Дмитрий Билик | Временщик 3 (2019) [FB2] }{@R0N
1 | 0

0 | 319

2

2019-01-27 22:38
}{@R0N Latest
Display posts from previous:    
Reply to topic

The time now is: Today 20:10

All times are GMT + 3 Hours



You cannot post new topics in this forum
You cannot reply to topics in this forum
You cannot edit your posts in this forum
You cannot delete your posts in this forum
You cannot vote in polls in this forum
You cannot attach files in this forum
You cannot download files in this forum