Сегодня идет свободное скачивание без начисления Download

Штамм: В Осаде (ВебЭпизоды) / The Strain: Under Siege (WEBISODES) / Серии: 1-7 (?) (Гильермо дель Торо, Чак Хоган) [2016, ужасы, драма WEBRip 720p] MVO (OMSKBIRD)

Ответить на тему
 
Автор
Сообщение

Omen ®

Стаж: 5 лет 11 месяцев

Сообщений: 184329

Торрент-статистика

Пост 24-Окт-2016 01:00

[Цитировать]

-Штамм: В Осаде (ВебЭпизоды) / The Strain: Under Siege (WEBISODES)- Год выпуска • 2016
Страна • США
Жанр • ужасы, драма
Продолжительность • ~2-3 мин. эпизод
Перевод
• Профессиональный (многоголосый, закадровый) "OMSKBIRD records"-Создатель • Гильермо дель Торо, Чак Хоган
В ролях • Tracy Perez, Joaquín Cosio и др.-Описание • Ответвление от основного сериала, рассказывающее историю девушки Марии, до того как её арестовала полиция и отправила в тоннели бороться со стригоями.-ПереводНиколай Исаков
Роли озвучивалиПавел Ярощик, Алексей Гнеушев, Ольга Федорова
ЗвукорежиссерПавел Квентов
ПостерКсения Просветова
Релиз подготовилGater-Качество: WEBRip 720p
Формат: MKV
Видео: MPEG-4 AVC / ~ 3500 kbps / 1280:720p / 25.000 fps / 16:9 / ~ 0.150 bit/pixel
Аудио:
Русский / Dolby Digital 2.0 / 48 kHz / 192 kbps
Субтитры:нет-

-

Скриншоты

-

MediaInfo


General
Unique ID : 244293538754998508383911455596439898945 (0xB7C93961F35A78D19375B537D8738B41)
Complete name : F:\Мои Документы\Видео\РАЗДАЧИ\Штаммчик\The Strain Under Siege\The Strain Under Siege Ep1 WEBRip 720p.mkv
Format : Matroska
Format version : Version 2
File size : 57.1 MiB
Duration : 2mn 7s
Overall bit rate : 3 755 Kbps
Encoded date : UTC 2016-10-23 12:04:06
Writing application : mkvmerge v4.0.0 ('The Stars were mine') сборка от Jun 6 2010 16:18:42
Writing library : libebml v1.0.0 + libmatroska v1.0.0
Video
ID : 1
Format : AVC
Format/Info : Advanced Video Codec
Format profile : Main@L3.2
Format settings, CABAC : Yes
Format settings, ReFrames : 3 frames
Codec ID : V_MPEG4/ISO/AVC
Duration : 2mn 7s
Bit rate : 3 488 Kbps
Width : 1 280 pixels
Height : 720 pixels
Display aspect ratio : 16:9
Frame rate : 25.000 fps
Standard : PAL
Color space : YUV
Chroma subsampling : 4:2:0
Bit depth : 8 bits
Scan type : Progressive
Bits/(Pixel*Frame) : 0.151
Stream size : 53.1 MiB (93%)
Language : English
Default : Yes
Forced : No
Audio
ID : 2
Format : AC-3
Format/Info : Audio Coding 3
Mode extension : CM (complete main)
Format settings, Endianness : Big
Codec ID : A_AC3
Duration : 2mn 7s
Bit rate mode : Constant
Bit rate : 192 Kbps
Channel(s) : 2 channels
Channel positions : Front: L R
Sampling rate : 48.0 KHz
Bit depth : 16 bits
Compression mode : Lossy
Stream size : 2.92 MiB (5%)
Default : Yes
Forced : No

Внимание! Раздача ведётся путём добавления новых серий.

Внимание! Раздача ведётся путём добавления новых серий; при каждом добавлении создётся новый торрент. Чтобы начать докачку новой серии, пользователям необходимо сделать следующее:
Остановить скачивание.
Удалить старый торрент у себя из клиента (старые серии удалять не надо).
Скачать новый торрент и запустить его у себя в клиенте вместо старого, при этом указать клиенту путь в старую папку куда и должно происходить скачивание новых серий.
Ваш клиент при этом должен произвести хеширование (проверку) старой папки (если не производит сам - помогите ему сделать это), и будет докачивать только те серии которых у вас ещё нет. Старые серии при этом не удаляются, а продолжают раздаваться!
Eсли вы уже удалили старые серии, то предотвратить повторную закачку старых серий можно, отжав галочку в соответсвующих местах при запуске нового торрента. По возможности, желательно не удалять старые серии как можно дольше чтобы релизёр не столько продолжал раздавать старые серии, а смог сконцентрироваться на новых.
Вне форума [Профиль] [ЛС]
Показать сообщения:    
Ответить на тему

Текущее время: Сегодня 21:04

Часовой пояс: GMT + 3



Вы не можете начинать темы
Вы не можете отвечать на сообщения
Вы не можете редактировать свои сообщения
Вы не можете удалять свои сообщения
Вы не можете голосовать в опросах
Вы не можете прикреплять файлы к сообщениям
Вы не можете скачивать файлы