Сегодня идет свободное скачивание без начисления Download

Черное зеркало / Black Mirror / Сезон: 3 / Серии: 1-6 из 6 (Оуэн Харрис, Карл Тиббеттс, Отто Баферст) [2016, Великобритания, фантастика, триллер, драма, WEB-DLRip] MVO (HamsterStudio)

Ответить на тему
 
Автор
Сообщение

Omen ®

Стаж: 5 лет 6 месяцев

Сообщений: 186946

Торрент-статистика

Пост 23-Окт-2016 01:00

[Цитировать]

Чёрное зеркало / Black Mirror
Год выпуска: 2016
Страна: Великобритания
Жанр: фантастика, триллер, драма
Продолжительность: 01:30:00
Перевод: Любительский (многоголосый закадровый) HamsterStudio
Режиссёр: Оуэн Харрис, Карл Тиббеттс, Отто Баферст
В ролях: Рори Киннер, Дэниэл Калуя, Джессика Браун-Финдли, Тоби Кеббелл, Джоди Уиттакер, Хейли Этвелл, Донал Глисон, Ленора Кричлоу, Дэниэл Ригби, Том Каллен
Описание: За последние десять лет технологии всесторонне изменили нашу жизнь, прежде чем мы успели опомниться и усомниться в них. В каждом доме, на каждом столе, на каждой ладони — плазменный телевизор, монитор компьютера, дисплей смартфона — черное зеркало нашего существования в двадцать первом веке. Наша связь с реальностью меняется. Мы возложили на алтарь «Google» и «Apple» и поклоняемся им. «Facebook»-алгоритмы знают о нас больше, чем наши собственные родители. У нас есть доступ ко всей информации в мире, но в голове хватает места лишь для того, чтобы воспринять 140 символов из сообщения в твиттере. В «Чёрном зеркале» отображается всеобщее беспокойство за наш современный мир…
Доп. информация: Озвучка: Андрей Жариков, Катерина Магура, Семён Ващенко, Ариса Лебедева, Вячеслав Айсберг, Алексей Соловьёв и Анастасия Снегирева
Перевод: dsa69, Михаил Васильев, Иван Ильин, Оксана Графутко, Антон Кедров и Катеринка Денищук
Работа с видео, монтаж и сведение звука: Иван Козлов, Роман Мырон, Семён Ващенко и Николай Гуров
Сэмпл: http://sendfile.su/1276742
Качество: WEB-DLRip
Формат: AVI
Видео: XviD, 720x380 (1.895), 23.976 кадр/сек, 1 090 Kbps
Аудио: RUS: MP3, 128 Кбит/сек, 2 канала, 48 КГц
Субтитры: нет

Список серий

Серия 1 Nosedive
Серия 2 Playtest
Серия 3 Shut Up and Dance
Серия 4 San Junipero
Серия 5 Men Against Fire
Серия 6 Hated in the Nation

MediaInfo

General
Complete name : /media/pop/40_Gb/Черное зеркало для рутрекера/Black_Mirror_season_3/Black.Mirror.s03e01.WEB-DLRip.HamsterStudio.avi
Format : AVI
Format/Info : Audio Video Interleave
File size : 554 MiB
Duration : 1h 3mn
Overall bit rate : 1 227 Kbps
Writing application : VirtualDubMod 1.5.10.2 (build 2540/release)
Writing library : VirtualDubMod build 2540/release
Video
ID : 0
Format : MPEG-4 Visual
Format profile : Advanced Simple@L5
Format settings, BVOP : 2
Format settings, QPel : No
Format settings, GMC : No warppoints
Format settings, Matrix : Default (H.263)
Muxing mode : Packed bitstream
Codec ID : XVID
Codec ID/Hint : XviD
Duration : 1h 3mn
Bit rate : 1 090 Kbps
Width : 720 pixels
Height : 380 pixels
Display aspect ratio : 1.895
Frame rate : 23.976 fps
Original frame rate : 24.026 fps
Color space : YUV
Chroma subsampling : 4:2:0
Bit depth : 8 bits
Scan type : Progressive
Compression mode : Lossy
Bits/(Pixel*Frame) : 0.166
Stream size : 492 MiB (89%)
Writing library : XviD 67
Audio
ID : 1
Format : MPEG Audio
Format version : Version 1
Format profile : Layer 3
Codec ID : 55
Codec ID/Hint : MP3
Duration : 1h 3mn
Bit rate mode : Constant
Bit rate : 128 Kbps
Channel(s) : 2 channels
Sampling rate : 48.0 KHz
Compression mode : Lossy
Stream size : 57.8 MiB (10%)
Alignment : Aligned on interleaves
Interleave, duration : 42 ms (1.00 video frame)
Interleave, preload duration : 504 ms

Скриншоты

Вне форума [Профиль] [ЛС]
Похожие темы
Форум Тема Автор Торрент Отв. Посл. сообщение
./templates/default/images/folder_dl.gif Обучающее видео David J. Nightingale | Искусство черно-белой фотографии (2014) [PCRec] Omen
1 | 0

0 | 1137

35

2014-06-20 22:55
Omen Последнее
./templates/default/images/folder_dl.gif Обучающее видео [Kузьмичeв] Ретушь чёрно-белых фотографий [2014, RUS] Omen
1 | 0

0 | 869

31

2015-02-25 15:00
Omen Последнее
./templates/default/images/folder_dl.gif Фантастика, фэнтези, ужасы, мистика Василий Головачев | Черное время [2010] [MP3] }{@R0N
1 | 0

0 | 159

5

2018-04-02 13:45
}{@R0N Последнее
Показать сообщения:    
Ответить на тему

Текущее время: Сегодня 17:30

Часовой пояс: GMT + 3



Вы не можете начинать темы
Вы не можете отвечать на сообщения
Вы не можете редактировать свои сообщения
Вы не можете удалять свои сообщения
Вы не можете голосовать в опросах
Вы не можете прикреплять файлы к сообщениям
Вы не можете скачивать файлы