Сегодня идет свободное скачивание без начисления Download

Сорвиголова / Marvel\'s Daredevil / Сезон: 1 / Серии: 1-9 из 13 (Фил Абрахам, Фэррен Блэкберн, Стивен С. ДеНайт) [2015, США, боевик, драма, криминал, BDRip 1080p] MVO (LostFilm) + Original Eng + Sub Eng

Ответить на тему
 
Автор
Сообщение

Omen ®

Стаж: 5 лет 6 месяцев

Сообщений: 186946

Торрент-статистика

Пост 23-Окт-2016 01:00

[Цитировать]

Сорвиголова / Marvel's Daredevil
Год выпуска: 2015
Страна: США
Жанр: Боевик, драма, криминал
Продолжительность серии: ~ 00:50:00
Перевод: Профессиональный многоголосый закадровый (LostFilm)
Режиссёр: Фил Абрахам, Фэррен Блэкберн, Стивен С. ДеНайт
В ролях: Чарли Кокс, Дебора Энн Уолл, Элден Хенсон, Винсент Д’Онофрио, Вонди Куртис-Холл, Тоби Леонард Мур, Боб Гантон, Розарио Доусон, Айелет Зурер, Ройс Джонсон и другие
Описание: Слепой с детства адвокат Мэтт Мёрдок под именем «Сорвиголова» использует остальные, невероятно усиленные чувства для борьбы с преступностью
/ Сэмпл
Качество: BDRip 1080p
Контейнер: MKV
Видео: AVC, 1920x1080 (16:9), 23.976 fps, ~ 18000 kbps, 0.360 bit/pixel
Аудио 1: Русский, DTS, 48 kHz, 6 channels, 1509 kbps
Аудио 2: Английский, DTS, 48 kHz, 6 channels, 1509 kbps
Субтитры: Английские (Softsub SRT)
Подробнее о релизе:
• Работа со всем звуком: k-marat-s
• Сохранены оригинальные чаптеры, как на Blu-ray

MediaInfo

General
Unique ID : 203570486634489449000269204242244279838 (0x99263FE5CDE2EA669050B9490E9F9E1E)
Complete name : /Marvel's.Daredevil.S01.1080p.BDRip.Rus.Eng.CasStudio.TV/Marvel's.Daredevil.S01E01.1080p.BDRip.Rus.Eng.CasStudio.TV.mkv
Format : Matroska
Format version : Version 4 / Version 2
File size : 7.65 GiB
Duration : 52mn 55s
Overall bit rate : 20.7 Mbps
Movie name : Marvel's Daredevil 1x01 (2015) - Release for CasStudio
Encoded date : UTC 2016-10-22 09:56:54
Writing application : mkvmerge v8.2.0 ('World of Adventure') 64bit
Writing library : libebml v1.3.1 + libmatroska v1.4.2
Video
ID : 1
Format : AVC
Format/Info : Advanced Video Codec
Format profile : High@L4.1
Format settings, CABAC : Yes
Format settings, ReFrames : 4 frames
Codec ID : V_MPEG4/ISO/AVC
Duration : 52mn 52s
Bit rate : 17.7 Mbps
Width : 1 920 pixels
Height : 1 080 pixels
Display aspect ratio : 16:9
Frame rate mode : Constant
Frame rate : 23.976 (24000/1001) fps
Color space : YUV
Chroma subsampling : 4:2:0
Bit depth : 8 bits
Scan type : Progressive
Bits/(Pixel*Frame) : 0.356
Stream size : 6.54 GiB (85%)
Title : Marvel's Daredevil 1x01 (2015) - Release for CasStudio
Writing library : x264 core 148 r2694 3b70645
Encoding settings : cabac=1 / ref=4 / deblock=1:-3:-3 / analyse=0x3:0x133 / me=umh / subme=10 / psy=1 / psy_rd=1.00:0.00 / mixed_ref=1 / me_range=24 / chroma_me=1 / trellis=2 / 8x8dct=1 / cqm=0 / deadzone=21,11 / fast_pskip=1 / chroma_qp_offset=-2 / threads=6 / lookahead_threads=1 / sliced_threads=0 / nr=0 / decimate=1 / interlaced=0 / bluray_compat=0 / constrained_intra=0 / bframes=8 / b_pyramid=2 / b_adapt=2 / b_bias=0 / direct=3 / weightb=1 / open_gop=0 / weightp=2 / keyint=250 / keyint_min=25 / scenecut=40 / intra_refresh=0 / rc_lookahead=60 / rc=crf / mbtree=0 / crf=18.0 / qcomp=0.60 / qpmin=0 / qpmax=69 / qpstep=4 / vbv_maxrate=62500 / vbv_bufsize=78125 / crf_max=0.0 / nal_hrd=none / filler=0 / ip_ratio=1.40 / pb_ratio=1.30 / aq=1:0.80 / zones=10980,12442,crf=16.5
Language : English
Default : Yes
Forced : No
Audio #1
ID : 2
Format : DTS
Format/Info : Digital Theater Systems
Mode : 16
Format settings, Endianness : Big
Codec ID : A_DTS
Duration : 52mn 55s
Bit rate mode : Constant
Bit rate : 1 509 Kbps
Channel(s) : 6 channels
Channel positions : Front: L C R, Side: L R, LFE
Sampling rate : 48.0 KHz
Frame rate : 93.750 fps (512 spf)
Bit depth : 16 bits
Compression mode : Lossy
Stream size : 571 MiB (7%)
Title : LostFilm
Language : Russian
Default : Yes
Forced : No
Audio #2
ID : 3
Format : DTS
Format/Info : Digital Theater Systems
Mode : 16
Format settings, Endianness : Big
Codec ID : A_DTS
Duration : 52mn 55s
Bit rate mode : Constant
Bit rate : 1 509 Kbps
Channel(s) : 6 channels
Channel positions : Front: L C R, Side: L R, LFE
Sampling rate : 48.0 KHz
Frame rate : 93.750 fps (512 spf)
Bit depth : 24 bits
Compression mode : Lossy
Stream size : 571 MiB (7%)
Title : Original
Language : English
Default : No
Forced : No
Text
ID : 4
Format : UTF-8
Codec ID : S_TEXT/UTF8
Codec ID/Info : UTF-8 Plain Text
Duration : 51mn 2s
Bit rate : 60 bps
Count of elements : 646
Stream size : 22.6 KiB (0%)
Title : eng-sub
Language : English
Default : No
Forced : No
Menu
00:00:00.000 : en:Chapter 01
00:08:39.561 : en:Chapter 02
00:16:58.351 : en:Chapter 03
00:28:38.800 : en:Chapter 04
00:34:19.391 : en:Chapter 05
00:45:22.386 : en:Chapter 06
00:51:34.216 : en:Chapter 07

Скриншоты


Вне форума [Профиль] [ЛС]
Показать сообщения:    
Ответить на тему

Текущее время: Сегодня 13:00

Часовой пояс: GMT + 3



Вы не можете начинать темы
Вы не можете отвечать на сообщения
Вы не можете редактировать свои сообщения
Вы не можете удалять свои сообщения
Вы не можете голосовать в опросах
Вы не можете прикреплять файлы к сообщениям
Вы не можете скачивать файлы