Сегодня идет свободное скачивание без начисления Download

Расследования Мердока / Murdoch Mysteries / Сезон: 10 / Серии: 1-2 из 18 (Харви Кросслэнд, Пол Фокс, Элинор Линдо) [2016, Канада, детектив, WEBRip 720p] VO (DexterTV) + Original

Ответить на тему
 
Автор
Сообщение

Omen ®

Стаж: 5 лет 11 месяцев

Сообщений: 184329

Торрент-статистика

Пост 23-Окт-2016 01:00

[Цитировать]

Расследования Мердока / Murdoch Mysteries Год выпуска: 2016
Страна: Канада
Жанр: детектив
Продолжительность: ~45 мин
Перевод: Любительский (одноголосый закадровый) DexterTV
Режиссёр: Харви Кросслэнд, Пол Фокс, Элинор Линдо
В ролях: Янник Биссон, Томас Крэйг, Джонни Харрис, Хелен Джо, Лаклан Мёрдок, Джорджина Рейли, Джонатан Уоттон, Арвен Хампрейс, Найджел Беннетт, Питер Стеббингс
Описание: Начало 20 века. На улицах Торонто происходят странные убийства. Детектив Уильям Мердок раскрывает их с помощью новой науки — криминалистики. У него есть союзник — судебный врач Джулия Огден. Ни юный возраст, ни хорошее воспитание, ни пышные юбки не мешают ей вскрывать трупы и проводить экспертизы.
Сэмпл: http://multi-up.com/1123229
Качество: WEBRip 720p
Контейнер: MKV
Видео: AVC, 1280x720 (16:9), 29.970 fps, ~ 3350 Kbps, 0.121 bit/pixel
Аудио: MP3 2.0, 48 kHz, 192 kbps | Russian | DexterTV
Аудио 2: AAC 2.0, 48 kHz, 192 kbps | English | Original
Субтитры: отсутствуют

MediaInfo

Format : Matroska
Format version : Version 4 / Version 2
File size : 1.15 GiB
Duration : 44mn 12s
Overall bit rate mode : Variable
Overall bit rate : 3 734 Kbps
Encoded date : UTC 2016-10-17 08:43:04
Writing application : mkvmerge v9.4.2 ('So High') 64bit
Writing library : libebml v1.3.4 + libmatroska v1.4.5
Video
ID : 1
Format : AVC
Format/Info : Advanced Video Codec
Format profile : Main@L3.1
Format settings, CABAC : Yes
Format settings, ReFrames : 4 frames
Codec ID : V_MPEG4/ISO/AVC
Duration : 44mn 12s
Bit rate mode : Variable
Bit rate : 3 350 Kbps
Maximum bit rate : 5 100 Kbps
Width : 1 280 pixels
Height : 720 pixels
Display aspect ratio : 16:9
Frame rate mode : Constant
Frame rate : 29.970 (30000/1001) fps
Color space : YUV
Chroma subsampling : 4:2:0
Bit depth : 8 bits
Scan type : Progressive
Bits/(Pixel*Frame) : 0.121
Stream size : 1.03 GiB (90%)
Default : Yes
Forced : No
Audio #1
ID : 2
Format : MPEG Audio
Format version : Version 1
Format profile : Layer 3
Mode : Joint stereo
Codec ID : A_MPEG/L3
Codec ID/Hint : MP3
Duration : 44mn 12s
Bit rate mode : Constant
Bit rate : 192 Kbps
Channel(s) : 2 channels
Sampling rate : 48.0 KHz
Frame rate : 41.667 fps (1152 spf)
Compression mode : Lossy
Stream size : 60.7 MiB (5%)
Title : DexterTV
Language : Russian
Default : Yes
Forced : Yes
Audio #2
ID : 3
Format : AAC
Format/Info : Advanced Audio Codec
Format profile : LC
Codec ID : A_AAC
Duration : 44mn 12s
Bit rate : 192 Kbps
Channel(s) : 2 channels
Channel positions : Front: L R
Sampling rate : 44.1 KHz
Frame rate : 43.066 fps (1024 spf)
Compression mode : Lossy
Stream size : 60.0 MiB (5%)
Title : English
Language : English
Default : No
Forced : No

Скриншоты

Вне форума [Профиль] [ЛС]
Похожие темы
Форум Тема Автор Торрент Отв. Посл. сообщение
./templates/default/images/folder_dl.gif Обучающее видео Специалист | СЕН3 (CHFI) Расследование хакерских инцидентов (2016) PCRec Omen
1 | 0

0 | 974

35

2016-10-27 01:01
Omen Последнее
Показать сообщения:    
Ответить на тему

Текущее время: Сегодня 07:12

Часовой пояс: GMT + 3



Вы не можете начинать темы
Вы не можете отвечать на сообщения
Вы не можете редактировать свои сообщения
Вы не можете удалять свои сообщения
Вы не можете голосовать в опросах
Вы не можете прикреплять файлы к сообщениям
Вы не можете скачивать файлы