Сегодня идет свободное скачивание без начисления Download

Красный карлик / Red Dwarf / Сезон: 11 / Серии: 1-3 из 6 (Эд Бай / Ed Bye) [2016, Великобритания, Научно-фантастическая комедия положений, HDTVRip] DVO (Андрей Жариков Анастасия Снегирева / HamsterStudio)

Ответить на тему
 
Автор
Сообщение

Omen ®

Стаж: 5 лет 9 месяцев

Сообщений: 184433

Торрент-статистика

Пост 23-Окт-2016 01:00

[Цитировать]

Красный карлик / Red Dwarf
Год выпуска: 2016
Страна: Великобритания
Жанр: Научно-фантастическая комедия положений
Продолжительность: 00:29:00
Перевод: Любительский (двухголосый закадровый) Андрей Жариков Анастасия Снегирева / HamsterStudio
Режиссёр: Эд Бай / Ed Bye
В ролях: Крэйг Чарльз, Дэнни Джон-Джулс, Крис Барри, Роберт Ллевелин, Норман Ловетт
Описание: Место действия сериала — космический корабль «Красный карлик». Смертельный выброс радиации убивает на корабле всё живое, кроме младшего техника Дэйва Листера, находившегося в замедлителе времени, и его беременной кошки Франкенштейн, находившейся в грузовом отсеке. Холли — бортовой компьютер «Красного карлика», держит Листера в замедлителе до тех пор, пока уровень радиации не спадёт до безопасного, что занимает 3000000 лет. Таким образом Листер, фактически, оказывается последним представителем человеческой рассы, но не единственной формой жизни на борту судна. Холли воскрешает в виде голограммы его соседа по каюте и непосредственного начальника Арнольда Риммера. Также, на корабле обитает существо, известное как Кот, которое произошло от кошки Листера.
Доп. информация: Озвучено по заказу Ulitka.tv
Раздача ведётся путём добавления новых серий.
Сэмпл: http://sendfile.su/1276499
Качество: HDTVRip
Формат: AVI
Видео: XVID, 1 477 kb/s, 16:9, 720x400, 25.000 кадр/сек
Аудио: MP3, 192 Кбит/сек, 2 канала, 48 КГц
Субтитры: нет

Список серий

Серия 1 Twentica
Серия 2 Samsara
Серия 3 Give and Take

MediaInfo

General
Complete name : /media/pop/40_Gb/Красный карлик 11 для рутрекера/Red_Dwarf_season_11/Red.Dwarf.S11E01.HDTVrip.HamsterStudio.avi
Format : AVI
Format/Info : Audio Video Interleave
File size : 338 MiB
Duration : 28mn 11s
Overall bit rate : 1 679 Kbps
Writing application : VirtualDubMod 1.5.10.3 | www.virtualdub-fr.org || (build 2550/release)
Writing library : VirtualDubMod build 2550/release
Video
ID : 0
Format : MPEG-4 Visual
Format profile : Advanced Simple@L5
Format settings, BVOP : 2
Format settings, QPel : No
Format settings, GMC : No warppoints
Format settings, Matrix : Default (MPEG)
Codec ID : XVID
Codec ID/Hint : XviD
Duration : 28mn 11s
Bit rate : 1 477 Kbps
Width : 720 pixels
Height : 400 pixels
Display aspect ratio : 16:9
Frame rate : 25.000 fps
Color space : YUV
Chroma subsampling : 4:2:0
Bit depth : 8 bits
Scan type : Progressive
Compression mode : Lossy
Bits/(Pixel*Frame) : 0.205
Stream size : 298 MiB (88%)
Writing library : XviD 1.2.1 (UTC 2008-12-04)
Audio
ID : 1
Format : MPEG Audio
Format version : Version 1
Format profile : Layer 3
Mode : Joint stereo
Mode extension : MS Stereo
Codec ID : 55
Codec ID/Hint : MP3
Duration : 28mn 11s
Bit rate mode : Constant
Bit rate : 192 Kbps
Channel(s) : 2 channels
Sampling rate : 48.0 KHz
Compression mode : Lossy
Stream size : 38.7 MiB (11%)
Alignment : Aligned on interleaves
Interleave, duration : 40 ms (1.00 video frame)
Interleave, preload duration : 504 ms
Writing library : LAME3.99r
Encoding settings : -m j -V 4 -q 2 -lowpass 18.6 -b 192

Скриншоты

Вне форума [Профиль] [ЛС]
Похожие темы
Форум Тема Автор Торрент Отв. Посл. сообщение
./templates/default/images/folder_dl.gif Обучающая и научно-популярная литература Леви Владимир - Научно-популярная и Учебная литература. 8, Лекарство от лени [Валентина Краснянская, (ЛИ), 2005, 128 kbps, MP3] Omen
1 | 0

0 | 1704

10

2017-01-09 01:01
Omen Последнее
Показать сообщения:    
Ответить на тему

Текущее время: Сегодня 16:40

Часовой пояс: GMT + 3



Вы не можете начинать темы
Вы не можете отвечать на сообщения
Вы не можете редактировать свои сообщения
Вы не можете удалять свои сообщения
Вы не можете голосовать в опросах
Вы не можете прикреплять файлы к сообщениям
Вы не можете скачивать файлы