Сегодня идет свободное скачивание без начисления Download

18 мне уже #E389 / 18 Years Old (GirlsDoPorn) [2016 г., Casting, Amateur, All Sex, SiteRip] (Girl E389)

Ответить на тему
 
Автор
Сообщение

XP1971 ®

Пол:

Стаж: 4 года 11 месяцев

Сообщений: 5753

Торрент-статистика

Пост 22-Окт-2016 12:43

[Цитировать]

-18 мне уже #E389

18 Years Old #E389
--
Страна: USA
Режиссер: N/Av
Студия: GirlsDoPorn
Год выпуска: 2016 г.
Перевод: Отсутствует
Продолжительность: 00:48:09
Жанр: Casting, Amateur, All Sex
Оригинальный аудиопоток: английский-В ролях:
Girl E389-Оригинальное описание:
The girl came to the casting was to understand what's going to do with it, and though she was sometimes hard, but overall managed teenage slut with glitter. Scoring in the end everything turned out.-Описание на русском:
Девушка, придя на кастинг должна была понимать- что тут будут с ней делать, и пусть ей было местами тяжеловато, но в целом справилась шалава малолетняя с блеском. Зачотно в итоге все получилось.-
Контейнер: MP4
Аудио кодек: AAC
Cубтитры: отсутствуют
Качество видео: SiteRip
Видео кодек: MPEG4 AVC
Аудио: Advanced Audio | 48.0 KHz | 2 ch | 317.0 Kbps
Видео: AVC | 720x404 | 2363 Кbps | 29.97 fps | 0.271 bit/pixel

Media Info

Код:
Общее
Полное имя : 18 Years Old #E389_[/*spam*/].mp4
Формат : MPEG-4
Профиль формата : Base Media / Version 2
Идентификатор кодека : mp42
Размер файла : 925 Мбайт
Продолжительность : 48 м.
Режим общего битрейта : Переменный
Общий поток : 2684 Кбит/сек
Дата кодирования : UTC 2016-10-14 23:59:49
Дата пометки : UTC 2016-10-14 23:59:55
©TIM : 00;00;00;00
©TSC : 30000
©TSZ : 1001
Видео
Идентификатор : 1
Формат : AVC
Формат/Информация : Advanced Video Codec
Профиль формата : [email protected]/*  */
Параметр CABAC формата : Да
Параметр ReFrames формата : 3 кадра
Идентификатор кодека : avc1
Идентификатор кодека/Информация : Advanced Video Coding
Продолжительность : 48 м.
Битрейт : 2363 Кбит/сек
Ширина : 720 пикселей
Высота : 404 пикселя
Соотношение сторон : 16:9
Режим частоты кадров : Постоянный
Частота кадров : 29,970 кадров/сек
Стандарт вещания : NTSC
Цветовое пространство : YUV
Субдискретизация насыщенности : 4:2:0
Битовая глубина : 8 бит
Тип развёртки : Прогрессивная
Бит/(Пиксели*Кадры) : 0.271
Размер потока : 814 Мбайт (88%)
Язык : English
Дата кодирования : UTC 2016-10-14 23:59:49
Дата пометки : UTC 2016-10-14 23:59:49
Цветовой диапазон : Limited
Основные цвета : BT.601 NTSC
Характеристики трансфера : BT.601
Коэффициенты матрицы : BT.601
Аудио
Идентификатор : 2
Формат : AAC
Формат/Информация : Advanced Audio Codec
Профиль формата : LC
Идентификатор кодека : 40
Продолжительность : 48 м.
Продолжительность оригинала : 48 м.
Вид битрейта : Переменный
Битрейт : 317 Кбит/сек
Максимальный битрейт : 425 Кбит/сек
Каналы : 2 канала
Расположение каналов : Front: L R
Частота : 48,0 КГц
Метод сжатия : С потерями
Размер потока : 109 Мбайт (12%)
Размер потока оригинала : 109 Мбайт (12%)
Язык : English
Дата кодирования : UTC 2016-10-14 23:59:49
Дата пометки : UTC 2016-10-14 23:59:49

Скринлист


_________________
Вне форума [Профиль] [ЛС]
Показать сообщения:    
Ответить на тему

Текущее время: Сегодня 17:45

Часовой пояс: GMT + 3



Вы не можете начинать темы
Вы не можете отвечать на сообщения
Вы не можете редактировать свои сообщения
Вы не можете удалять свои сообщения
Вы не можете голосовать в опросах
Вы не можете прикреплять файлы к сообщениям
Вы не можете скачивать файлы