Сегодня идет свободное скачивание без начисления Download

Однажды в сказке / Once Upon a Time / Сезон: 6 / Серии: 1-3 из 23 (Грег Биман, Марк Майлод, Дин Уайт) [2016, США, Фэнтези, приключения, WEB-DLRip] Dub (Невафильм) + Original

Ответить на тему
 
Автор
Сообщение

Omen ®

Стаж: 5 лет 6 месяцев

Сообщений: 186946

Торрент-статистика

Пост 21-Окт-2016 01:00

[Цитировать]

Однажды в сказке / Once Upon a Time- Название: Однажды в сказке
Оригинальное название: Once Upon a Time
Год выпуска: 2016
Страна: США
Жанр: Фэнтези, приключения
Продолжительность: 00:45:00
-Перевод: Дублированный - Невафильм-Режиссёр: Грег Биман, Марк Майлод, Дин Уайт-В ролях: Дженнифер Моррисон, Джиннифер Гудвин, Лана Парийя, Джошуа Даллас, Джаред Гилмор, Роберт Карлайл, Рафаэль Сбардж, Меган Ори, Эйон Бэйли, Беверли Эллиотт-Описание: Сказочные приключения жительницы Бостона Эммы Свон продолжаются. Вместе с Белоснежкой, Прекрасным Принцем и другими обитателями Сторибрука и Зачарованного Леса Эмма противостоит темным силам, которыми руководит Злая Королева.-Сэмпл-Качество: WEB-DLRip
Формат: AVI
Видео: 720x400 (16:9), 25.000 fps, XviD build 73, 1425 Kbps, 0.19 bit/pixel
Аудио 1: MPEG Layer 3, 48,0 kHz, 2 ch, 128 kb/s — дублированный
Аудио 2: MPEG Layer 3, 48,0 kHz, 2 ch, 128 kb/s — оригинал
Субтитры: "отсутствуют"

MediaInfo

General
Complete name : Downloads\Once Upon a Time (Season 06) DUB
Format : AVI
Format/Info : Audio Video Interleave
File size : 501 MiB
Duration : 41mn 17s
Overall bit rate : 1 695 Kbps
Writing application : VirtualDubMod 1.5.10.3 | www.virtualdub-fr.org || (build 2550/release)
Writing library : VirtualDubMod build 2550/release
Video #0
ID : 0
Format : MPEG-4 Visual
Format profile : Advanced Simple@L5
Format settings, BVOP : 1
Format settings, QPel : No
Format settings, GMC : No warppoints
Format settings, Matrix : Default (MPEG)
Codec ID : XVID
Codec ID/Hint : XviD
Duration : 41mn 17s
Bit rate : 1 425 Kbps
Width : 720 pixels
Height : 400 pixels
Display aspect ratio : 16:9
Frame rate : 25.000 fps
Color space : YUV
Chroma subsampling : 4:2:0
Bit depth : 8 bits
Scan type : Progressive
Compression mode : Lossy
Bits/(Pixel*Frame) : 0.198
Stream size : 421 MiB (84%)
Writing library : XviD 73
Audio #1
ID : 1
Format : MPEG Audio
Format version : Version 1
Format profile : Layer 3
Mode : Joint stereo
Mode extension : MS Stereo
Codec ID : 55
Codec ID/Hint : MP3
Duration : 41mn 16s
Bit rate mode : Constant
Bit rate : 128 Kbps
Channel(s) : 2 channels
Sampling rate : 48.0 KHz
Compression mode : Lossy
Stream size : 37.8 MiB (8%)
Alignment : Aligned on interleaves
Interleave, duration : 40 ms (1.00 video frame)
Interleave, preload duration : 504 ms
Audio #2
ID : 2
Format : MPEG Audio
Format version : Version 1
Format profile : Layer 3
Mode : Joint stereo
Mode extension : MS Stereo
Codec ID : 55
Codec ID/Hint : MP3
Duration : 41mn 17s
Bit rate mode : Constant
Bit rate : 128 Kbps
Channel(s) : 2 channels
Sampling rate : 48.0 KHz
Compression mode : Lossy
Stream size : 37.8 MiB (8%)
Alignment : Aligned on interleaves
Interleave, duration : 40 ms (1.00 video frame)
Interleave, preload duration : 504 ms

Скриншоты

Внимание! Раздача ведётся путём добавления новых серий:

(1) остановить скачивание,
(2) удалить старый торрент у себя из клиента (старые серии удалять не надо),
(3) скачать новый торрент и запустить его у себя в клиенте вместо старого, при этом указать клиенту путь в старую папку куда и должно происходить скачивание новых серий.
Ваш клиент при этом должен произвести хеширование (проверку) старой папки (если не производит сам - помогите ему сделать это), и будет докачивать только те серии которых у вас ещё нет. Старые серии при этом не удаляются, а продолжают раздаваться!
Eсли вы уже удалили старые серии, то предотвратить повторную закачку старых серий можно, отжав галочку в соответсвующих местах при запуске нового торрента. По возможности, желательно не удалять старые серии как можно дольше чтобы релизёр не столько продолжал раздавать старые серии, а смог сконцентрироваться на новых
.
Вне форума [Профиль] [ЛС]
Показать сообщения:    
Ответить на тему

Текущее время: Сегодня 17:46

Часовой пояс: GMT + 3



Вы не можете начинать темы
Вы не можете отвечать на сообщения
Вы не можете редактировать свои сообщения
Вы не можете удалять свои сообщения
Вы не можете голосовать в опросах
Вы не можете прикреплять файлы к сообщениям
Вы не можете скачивать файлы