Сегодня идет свободное скачивание без начисления Download

Волшебники / The Magicians / Сезон: 1 / Серии: 1-13 из 13 (Скотт Смит, Майк Кэхилл, Ян Элиасберг) [2016, США, фэнтези, драма, WEBRip 1080p] Original + Rus Sub + Eng Sub

Ответить на тему
 
Автор
Сообщение

Omen ®

Стаж: 5 лет 7 месяцев

Сообщений: 185427

Торрент-статистика

Пост 21-Окт-2016 01:00

[Цитировать]

Волшебники / The Magicians
Год выпуска: 2016
Страна: США
Жанр: фентези, драма
Продолжительность: ~42 минуты
Перевод: Субтитры notabenoid
Режиссёр: Скотт Смит, Майк Кэхилл, Ян Элиасберг
В ролях: Эсме Бьянко, Стелла Маив, Джейсон Ральф, Майкл Кэссиди, Саммер Бишил, Дэвид Колл, Рик Уорси, Темби Лок, Арджун Гупта, Хейл Эйплмен и другие.
Описание: Сериал The Magicians – это экранизация одноименного фантастического романа американского автора Лева Гроссмана.
Молодые люди, слегка за двадцать, изучают в современном Нью-Йорке магию и обнаруживают, что волшебный мир, о котором они читали в детстве, не только реален, но еще и очень опасен.
Сэмпл: https://yadi.sk/i/XbiCE0TlxD7jK
Качество: WEBRip 1080p
Контейнер: MKV
Видео: AVC, 1920x1080 (16:9), 23,976 fps, ~8100 kbps
Аудио: Eng, AC3, 48 kHz, 6 ch, 384 kbps
Субтитры: Русские (софтсаб) + Английские (софтсаб)

Список серий

1. Unathorized Magic / Недозволенная магия
2. The Source of Magic / Источник магии
3. Consequences of Advanced Spellcasting / Последствия высшей магии
4. The World in the Walls / Мир в стенах
5. Mendings, Major and Minor / Ремонт, мелкий и крупный
6. Impractical Applications / Невыполнимое задание
7. The Mayakovsky Circumstance / Обстоятельства Маяковского
8. The Strangled Heart / Задушенное сердце
9. The Writing Room / Кабинет писателя
10. Homecoming / Возвращение домой
11. Remedial Battle Magic / Целебная боевая магия
12. Thirty Nine Graves / Тридцать девять могил
13. Have You Brought Me Little Cakes? / Вы принесли мне пироженки?

MediaInfo

General
Format : Matroska
Format version : Version 4 / Version 2
File size : 2.04 GiB
Duration : 52 min 1 s
Overall bit rate : 5 624 kb/s
Movie name : The Magicians S01E01 Unauthorized Magic
Encoded date : UTC 2016-10-20 07:32:14
Writing application : mkvmerge v9.5.0 ('Quiet Fire') 64bit
Writing library : libebml v1.3.4 + libmatroska v1.4.5
Video
ID : 1
Format : AVC
Format/Info : Advanced Video Codec
Format profile : High@L4
Format settings, CABAC : Yes
Format settings, ReFrames : 4 frames
Codec ID : V_MPEG4/ISO/AVC
Duration : 52 min 1 s
Bit rate : 5 238 kb/s
Width : 1 920 pixels
Height : 1 080 pixels
Display aspect ratio : 16:9
Frame rate mode : Constant
Frame rate : 23.976 (24000/1001) FPS
Color space : YUV
Chroma subsampling : 4:2:0
Bit depth : 8 bits
Scan type : Progressive
Bits/(Pixel*Frame) : 0.105
Stream size : 1.90 GiB (93%)
Language : English
Default : Yes
Forced : No
Color range : Limited
Color primaries : BT.709
Transfer characteristics : BT.709
Matrix coefficients : BT.709
Audio
ID : 2
Format : AC-3
Format/Info : Audio Coding 3
Mode extension : CM (complete main)
Format settings, Endianness : Big
Codec ID : A_AC3
Duration : 52 min 0 s
Bit rate mode : Constant
Bit rate : 384 kb/s
Channel(s) : 6 channels
Channel positions : Front: L C R, Side: L R, LFE
Sampling rate : 48.0 kHz
Frame rate : 31.250 FPS (1536 spf)
Compression mode : Lossy
Stream size : 143 MiB (7%)
Language : English
Default : No
Forced : No
Text #1
ID : 3
Format : UTF-8
Codec ID : S_TEXT/UTF8
Codec ID/Info : UTF-8 Plain Text
Duration : 50 min 51 s
Bit rate : 89 b/s
Count of elements : 706
Stream size : 33.3 KiB (0%)
Language : Russian
Default : Yes
Forced : No
Text #2
ID : 4
Format : UTF-8
Codec ID : S_TEXT/UTF8
Codec ID/Info : UTF-8 Plain Text
Duration : 50 min 43 s
Bit rate : 52 b/s
Count of elements : 702
Stream size : 19.6 KiB (0%)
Language : English
Default : No
Forced : No

Скриншоты

Вне форума [Профиль] [ЛС]
Похожие темы
Форум Тема Автор Торрент Отв. Посл. сообщение
./templates/default/images/folder_dl.gif Для самых маленьких Смешарики.Два волшебника (2010) {L} [RUS] Delia
1 | 0

3 | 6134

115

2013-02-09 17:09
Morrowind Последнее
Показать сообщения:    
Ответить на тему

Текущее время: Сегодня 13:50

Часовой пояс: GMT + 3



Вы не можете начинать темы
Вы не можете отвечать на сообщения
Вы не можете редактировать свои сообщения
Вы не можете удалять свои сообщения
Вы не можете голосовать в опросах
Вы не можете прикреплять файлы к сообщениям
Вы не можете скачивать файлы