Сегодня идет свободное скачивание без начисления Download

Супергёрл / Супердевушка / Supergirl / Сезон: 2 / Серии: 1-2 из 22 (Глен Уинтер) [2016, США, Фантастика, боевик, приключения, WEB-DLRip] MVO (LostFilm) + Original

Ответить на тему
 
Автор
Сообщение

Omen ®

Стаж: 5 лет 11 месяцев

Сообщений: 184329

Торрент-статистика

Пост 21-Окт-2016 01:00

[Цитировать]

Супергёрл | Супердевушка | Supergirl- Год выпуска: 2015
Страна: США
Жанр: Фантастика, боевик, приключения
Продолжительность: 00:46:00
Перевод: Профессиональный (многоголосый закадровый) | LostFilm--Режиссёр: Глен Уинтер
В ролях: Мелисса Бенойст, Лаура Бенанти, Мехкад Брукс, Калиста Флокхарт, Дэвид Хэрвуд, Джереми Джордан, Кайлер Ли, Овайн Йомэн и др.-Описание: Когда Криптон, родная планета 12-летней Кары Зор-Эл, была близка к разрушению, родители отправили свою дочь вслед за ее двоюродным братом Кал-Элом на Землю, чтобы она могла выжить и заодно защитить его от опасностей. Однако из-за взрывной волны корабль Кары попал в фантомную зону и прибыл на место назначения, когда Кал уже вырос, превратился в Супермена и перестал нуждаться в ее опеке. Много лет Кара жила в мире людей, вынужденная подавлять свою суперсилу и скрывать истинную сущность, прозябая в тени легендарного брата. Повзрослев и став красивой, умной женщиной, она устроилась на работу, где изо дня в день занимается тем, что разносит кофе и документы. Такая рутина не подходит Каре — она чувствует, что губит свой потенциал. Но все меняется, когда девушка проявляет свои неординарные способности, спасая от неминуемого крушения самолет, на борту которого находилась и ее сводная сестра Алекс. Прозванная газетчиками "Супергёрл", Кара загорается желанием защищать жителей города от преступности. Теперь ее ждут невероятные приключения, которые принесут девушке не меньшую славу, чем у самого Человека из стали. Однако столь желанная жизнь таит в себе и множество смертельных опасностей, ведь за хрупкой представительницей дома Эл охотятся самые свирепые головорезы Вселенной...--Сэмпл: http://multi-up.com/1122501-Качество: WEB-DLRip
Формат: AVI
Видео: XVID, 720x400 (16:9), 23.976 fps, 1400 kbps
Аудио Rus: MP3, 48 kHz, 2 ch, 128 kbps, CBR
Аудио Eng: MP3, 48 kHz, 2 ch, 128 kbps, CBR
Субтитры: отсутствуют

MediaInfo

General
Общее
Полное имя : X:\ATorrent\Supergirl (Season 02) LosFilm\Supergirl.[S02E01].XviD.LostFilm.[qqss44].avi
Формат : AVI
Формат/Информация : Audio Video Interleave
Размер файла : 503 Мбайт
Продолжительность : 42 м.
Общий поток : 1662 Кбит/сек
Программа кодирования : VirtualDubMod 1.5.10.3 | www.virtualdub-fr.org || (build 2550/release)
Библиотека кодирования : VirtualDubMod build 2550/release
Видео
Идентификатор : 0
Формат : MPEG-4 Visual
Профиль формата : Advanced Simple@L5
Параметр BVOP формата : 2
Параметр QPel формата : Нет
Параметр GMC формата : Без точки перехода
Параметр матрицы формата : Выборочная
Идентификатор кодека : XVID
Идентификатор кодека/Подсказка : XviD
Продолжительность : 42 м.
Битрейт : 1392 Кбит/сек
Ширина : 720 пикселей
Высота : 400 пикселей
Соотношение сторон : 16:9
Частота кадров : 23,976 (23976/1000) кадра/сек
Цветовое пространство : YUV
Субдискретизация насыщенности : 4:2:0
Битовая глубина : 8 бит
Тип развёртки : Прогрессивная
Метод сжатия : С потерями
Бит/(Пиксели*Кадры) : 0.202
Размер потока : 421 Мбайт (84%)
Библиотека кодирования : XviD 73
Аудио #1
Идентификатор : 1
Формат : MPEG Audio
Версия формата : Version 1
Профиль формата : Layer 3
Режим : Joint stereo
Расширение режима : MS Stereo
Идентификатор кодека : 55
Идентификатор кодека/Подсказка : MP3
Продолжительность : 42 м.
Вид битрейта : Постоянный
Битрейт : 128 Кбит/сек
Каналы : 2 канала
Частота : 48,0 КГц
Метод сжатия : С потерями
Размер потока : 38,7 Мбайт (8%)
Выравнивание : Соединение по промежуткам
Продолжительность промежутка : 42 мс. (1,00 видеокадр)
Время предзагрузки промежутка : 504 мс.
Аудио #2
Идентификатор : 2
Формат : MPEG Audio
Версия формата : Version 1
Профиль формата : Layer 3
Режим : Joint stereo
Расширение режима : MS Stereo
Идентификатор кодека : 55
Идентификатор кодека/Подсказка : MP3
Продолжительность : 42 м.
Вид битрейта : Постоянный
Битрейт : 128 Кбит/сек
Каналы : 2 канала
Частота : 48,0 КГц
Метод сжатия : С потерями
Размер потока : 38,7 Мбайт (8%)
Выравнивание : Соединение по промежуткам
Продолжительность промежутка : 42 мс. (1,00 видеокадр)
Время предзагрузки промежутка : 504 мс.

Скриншоты

-

Внимание! Раздача ведётся путём добавления новых серий!

Внимание! Раздача ведётся путём добавления новых серий; при каждом добавлении создаётся новый торрент.
Чтобы начать докачку новой серии, пользователям необходимо сделать следующее:

1. Остановить скачивание.
2. Удалить старый торрент у себя из клиента (старые серии удалять не надо).
3. Скачать новый торрент и запустить его у себя в клиенте вместо старого, при этом указать клиенту путь в старую папку куда и должно происходить скачивание новых серий.

Ваш клиент при этом должен произвести хеширование (проверку) старой папки (если не производит сам - помогите ему сделать это), и будет докачивать только те серии которых у вас ещё нет. Старые серии при этом не удаляются, а продолжают раздаваться!
Eсли вы уже удалили старые серии, то предотвратить повторную закачку старых серий можно, отжав галочку в соответсвующих местах при запуске нового торрента.
-
Вне форума [Профиль] [ЛС]
Похожие темы
Форум Тема Автор Торрент Отв. Посл. сообщение
./templates/default/images/folder_dl.gif Обучающая и научно-популярная литература Серов Игорь | Супер Интеллект (Действуй быстрее других) (2014) [MP3, PDF, DOCX, JPG] }{@R0N
0 | 1

0 | 821

1

2016-11-19 20:59
}{@R0N Последнее
Показать сообщения:    
Ответить на тему

Текущее время: Сегодня 18:16

Часовой пояс: GMT + 3



Вы не можете начинать темы
Вы не можете отвечать на сообщения
Вы не можете редактировать свои сообщения
Вы не можете удалять свои сообщения
Вы не можете голосовать в опросах
Вы не можете прикреплять файлы к сообщениям
Вы не можете скачивать файлы