Сегодня идет свободное скачивание без начисления Download

Чёрное зеркало / Black Mirror / Сезон: 1-2 / Серии: 1-7 из 7 (Чарли Брукер / Charlie Brooker) [2011-2014, Великобритания, социальная фантастика, сатира, WEB-DLRip-AVC] DVO (Кубик в кубе) + Original + Rus Subs

Ответить на тему
 
Автор
Сообщение

Omen ®

Стаж: 5 лет 7 месяцев

Сообщений: 185427

Торрент-статистика

Пост 20-Окт-2016 01:00

[Цитировать]

Чёрное зеркалоBlack Mirror- Годы выпуска: 2011-2014
Страна: Великобритания
Производство: Channel 4
Жанр: социальная фантастика, сатира-Продолжительность: 00:45:00
Перевод: Профессиональный (двухголосый закадровый) Кубик в кубе
Автор идеи: Чарли Брукер / Charlie Brooker
В ролях: Рори Киннер, Линдси Данкан, Дэниел Калуя, Джессика Браун-Финли, Руперт Эверетт, Тоби Кеббелл, Джоди Уиттакер, Хейли Этвелл, Донал Глисон, Ленора Криклоу, Майкл Смайли, Дэниел Ригби, Хлоя Пирри, Джейсон Флеминг, Джон Хэмм, Рэйф Сполл, Уна Чаплин, Таппенс Миддлтон, Дэвид Аджала и др.-Описание: За последние десять лет технологии всесторонне изменили нашу жизнь, прежде чем мы успели опомниться и усомниться в них. В каждом доме, на каждом столе, на каждой ладони — плазменный телевизор, монитор компьютера, дисплей смартфона — черное зеркало нашего существования в двадцать первом веке. Наша связь с реальностью меняется. Мы возложили на алтарь «Google» и «Apple» и поклоняемся им. «Facebook»-алгоритмы знают о нас больше, чем наши собственные родители. У нас есть доступ ко всей информации в мире, но в голове хватает места лишь для того, чтобы воспринять 140 символов из сообщения в твиттере. В «Чёрном зеркале» отображается всеобщее беспокойство за наш современный мир…-КиноПоиск | IMDb | Sample-Качество: WEB-DLRip-AVC (Источник: Black.Mirror.Channel.4.Collection.1080p.WEB-DL.Rus.Eng.CasStudio)
Формат: MKV
Видео: x264, 960x540 (16:9), 25 fps, ~2000 kbps avg, 0.154 bit/pixel
Аудио #1: Russian 48.0 KHz, AC3, 2 channels, ~192.00 kbps avg |Кубик в кубе|
Аудио #2: English 48.0 KHz, AC3, 2 channels, ~192.00 kbps avg |Original|
Субтитры: русские (Slivas и др.)-

Релиз

Рип, синхронизация звука и субтитров 2 сезона - whip93.
Работа со звуком спецвыпуска - alexmild.

Содержание и скриншоты

Extra. "Charlie Brooker's 2015 Wipe".

Продолжительность: 00:59:12
Перевод: Субтитры
Видео: x264, 960x540 (16:9), 25 fps, ~2000 kbps avg, 0.154 bit/pixel
Аудио: English 48.0 KHz, AAC, 2 channels, ~96.00 kbps avg |Original|
Субтитры: русские (hvblack)

MediaInfo

General
Unique ID : 189038568384835311476383469408614089038 (0x8E378102D80B7C01B666C54C0FFC014E)
Complete name : G:\Black Mirror - The Collection - whip93\Extras\Charlie.Brooker's.2015.Wipe.WEB-DLRip.x264.AAC.-whip93.mkv
Format : Matroska
Format version : Version 4 / Version 2
File size : 887 MiB
Duration : 59mn 12s
Overall bit rate : 2 095 Kbps
Movie name : Глумление | Charlie Brooker's Wipe (2015) - Release by whip93
Encoded date : UTC 2016-10-19 10:48:40
Writing application : mkvmerge v6.1.0 ('Old Devil') built on Mar 4 2013 09:10:42
Writing library : libebml v1.3.0 + libmatroska v1.4.0
Video
ID : 1
Format : AVC
Format/Info : Advanced Video Codec
Format profile : High@L4.1
Format settings, CABAC : Yes
Format settings, ReFrames : 12 frames
Codec ID : V_MPEG4/ISO/AVC
Duration : 59mn 12s
Nominal bit rate : 2 000 Kbps
Width : 960 pixels
Height : 540 pixels
Display aspect ratio : 16:9
Frame rate mode : Constant
Frame rate : 25.000 fps
Color space : YUV
Chroma subsampling : 4:2:0
Bit depth : 8 bits
Scan type : Progressive
Bits/(Pixel*Frame) : 0.154
Title : Encoded by whip93
Writing library : x264 core 148 r2705kMod 3f5ed56
Encoding settings : cabac=1 / ref=13 / deblock=1:-3:-3 / analyse=0x3:0x133 / me=umh / subme=9 / psy=1 / fade_compensate=0.00 / psy_rd=1.00:0.08 / mixed_ref=1 / me_range=64 / chroma_me=1 / trellis=1 / 8x8dct=1 / cqm=0 / deadzone=21,11 / fast_pskip=1 / chroma_qp_offset=-3 / threads=12 / lookahead_threads=1 / sliced_threads=0 / nr=0 / decimate=1 / interlaced=0 / bluray_compat=0 / constrained_intra=0 / fgo=0 / bframes=13 / b_pyramid=1 / b_adapt=1 / b_bias=0 / direct=3 / weightb=1 / open_gop=0 / weightp=2 / keyint=250 / keyint_min=23 / scenecut=40 / intra_refresh=0 / rc_lookahead=60 / rc=2pass / mbtree=1 / bitrate=2000 / ratetol=1.0 / qcomp=0.72 / qpmin=0 / qpmax=69 / qpstep=4 / cplxblur=20.0 / qblur=0.5 / vbv_maxrate=62500 / vbv_bufsize=78125 / nal_hrd=none / filler=0 / ip_ratio=1.40 / aq=1:1.00
Language : English
Default : Yes
Forced : No
Color primaries : BT.709
Transfer characteristics : BT.709
Matrix coefficients : BT.709
Audio
ID : 2
Format : AAC
Format/Info : Advanced Audio Codec
Format profile : HE-AAC / LC
Codec ID : A_AAC
Duration : 59mn 12s
Channel(s) : 2 channels
Channel positions : Front: L R
Sampling rate : 96.0 KHz / 48.0 KHz
Compression mode : Lossy
Language : English
Default : Yes
Forced : No
Text
ID : 3
Format : UTF-8
Codec ID : S_TEXT/UTF8
Codec ID/Info : UTF-8 Plain Text
Title : hvblack
Language : Russian
Default : Yes
Forced : No

Скриншоты

1.1. "The National Anthem".

1.2. "Fifteen Million Merits".

1.3. "The Entire History Of You".

2.1. "Be Right Back".

Видео: x264, 1024x512 (2.00:1), 25 fps, ~2000 kbps avg, 0.153 bit/pixel
Аудио #1: Russian 48.0 KHz, AC3, 2 channels, ~192.00 kbps avg |Кубик в кубе|
Аудио #2: English 48.0 KHz, AC3, 2 channels, ~192.00 kbps avg |Original|
Субтитры: русские (Slivas)

MediaInfo

General
Unique ID : 221910634161569872978890787877957093250 (0xA6F26EFBE2C6324A9DC3E22609E34782)
Complete name : G:\Black Mirror - The Collection - whip93\Channel 4\The Complete 2nd Season (2013)\Black.Mirror.S02E01.Be.Right.Back.WEB-DLRip.DD2.0.x264.-whip93.mkv
Format : Matroska
Format version : Version 4 / Version 2
File size : 830 MiB
Duration : 48mn 39s
Overall bit rate : 2 385 Kbps
Movie name : Чёрное зеркало | Black Mirror (Be Right Back) - Release by whip93
Encoded date : UTC 2016-10-19 07:04:10
Writing application : mkvmerge v6.1.0 ('Old Devil') built on Mar 4 2013 09:10:42
Writing library : libebml v1.3.0 + libmatroska v1.4.0
Video
ID : 1
Format : AVC
Format/Info : Advanced Video Codec
Format profile : High@L4.1
Format settings, CABAC : Yes
Format settings, ReFrames : 12 frames
Codec ID : V_MPEG4/ISO/AVC
Duration : 48mn 39s
Bit rate : 2 000 Kbps
Width : 1 024 pixels
Height : 512 pixels
Display aspect ratio : 2.000
Frame rate mode : Constant
Frame rate : 25.000 fps
Color space : YUV
Chroma subsampling : 4:2:0
Bit depth : 8 bits
Scan type : Progressive
Bits/(Pixel*Frame) : 0.153
Stream size : 680 MiB (82%)
Title : Encoded by whip93
Writing library : x264 core 148 r2705kMod 3f5ed56
Encoding settings : cabac=1 / ref=13 / deblock=1:-3:-3 / analyse=0x3:0x133 / me=umh / subme=9 / psy=1 / fade_compensate=0.00 / psy_rd=1.00:0.08 / mixed_ref=1 / me_range=64 / chroma_me=1 / trellis=1 / 8x8dct=1 / cqm=0 / deadzone=21,11 / fast_pskip=1 / chroma_qp_offset=-3 / threads=12 / lookahead_threads=1 / sliced_threads=0 / nr=0 / decimate=1 / interlaced=0 / bluray_compat=0 / constrained_intra=0 / fgo=0 / bframes=13 / b_pyramid=1 / b_adapt=1 / b_bias=0 / direct=3 / weightb=1 / open_gop=0 / weightp=2 / keyint=250 / keyint_min=23 / scenecut=40 / intra_refresh=0 / rc_lookahead=60 / rc=2pass / mbtree=1 / bitrate=2000 / ratetol=1.0 / qcomp=0.72 / qpmin=0 / qpmax=69 / qpstep=4 / cplxblur=20.0 / qblur=0.5 / vbv_maxrate=62500 / vbv_bufsize=78125 / nal_hrd=none / filler=0 / ip_ratio=1.40 / aq=1:1.00
Language : English
Default : Yes
Forced : No
Color primaries : BT.709
Transfer characteristics : BT.709
Matrix coefficients : BT.709
Audio #1
ID : 2
Format : AC-3
Format/Info : Audio Coding 3
Mode extension : CM (complete main)
Format settings, Endianness : Big
Codec ID : A_AC3
Duration : 48mn 39s
Bit rate mode : Constant
Bit rate : 192 Kbps
Channel(s) : 2 channels
Channel positions : Front: L R
Sampling rate : 48.0 KHz
Bit depth : 16 bits
Compression mode : Lossy
Stream size : 66.8 MiB (8%)
Title : DVO (Кубик в кубе)
Language : Russian
Default : Yes
Forced : No
Audio #2
ID : 3
Format : AC-3
Format/Info : Audio Coding 3
Mode extension : CM (complete main)
Format settings, Endianness : Big
Codec ID : A_AC3
Duration : 48mn 39s
Bit rate mode : Constant
Bit rate : 192 Kbps
Channel(s) : 2 channels
Channel positions : Front: L R
Sampling rate : 48.0 KHz
Bit depth : 16 bits
Compression mode : Lossy
Stream size : 66.8 MiB (8%)
Title : Original
Language : English
Default : No
Forced : No
Text
ID : 4
Format : UTF-8
Codec ID : S_TEXT/UTF8
Codec ID/Info : UTF-8 Plain Text
Language : Russian
Default : No
Forced : No

Скриншоты

2.2. "White Bear".

2.3. "The Waldo Moment".

Christmas Special. "White Christmas".

MediaInfo

General
Unique ID : 242782406650573370353628425352292345468 (0xB6A630D1504F8A5D87E9C4F0C460267C)
Complete name : G:\Black Mirror - The Collection - whip93\Channel 4\The Complete 1st Season (2011)\Black.Mirror.S01E01.The.National.Anthem.WEB-DLRip.DD2.0.x264.-whip93.mkv
Format : Matroska
Format version : Version 4 / Version 2
File size : 764 MiB
Duration : 44mn 47s
Overall bit rate : 2 386 Kbps
Movie name : Чёрное зеркало | Black Mirror (The National Anthem) - Release by whip93
Encoded date : UTC 2016-10-18 16:36:24
Writing application : mkvmerge v6.1.0 ('Old Devil') built on Mar 4 2013 09:10:42
Writing library : libebml v1.3.0 + libmatroska v1.4.0
Video
ID : 1
Format : AVC
Format/Info : Advanced Video Codec
Format profile : High@L4.1
Format settings, CABAC : Yes
Format settings, ReFrames : 12 frames
Codec ID : V_MPEG4/ISO/AVC
Duration : 44mn 47s
Bit rate : 2 000 Kbps
Width : 960 pixels
Height : 540 pixels
Display aspect ratio : 16:9
Frame rate mode : Constant
Frame rate : 25.000 fps
Color space : YUV
Chroma subsampling : 4:2:0
Bit depth : 8 bits
Scan type : Progressive
Bits/(Pixel*Frame) : 0.154
Stream size : 626 MiB (82%)
Title : Encoded by whip93
Writing library : x264 core 148 r2705kMod 3f5ed56
Encoding settings : cabac=1 / ref=13 / deblock=1:-3:-3 / analyse=0x3:0x133 / me=umh / subme=9 / psy=1 / fade_compensate=0.00 / psy_rd=1.00:0.08 / mixed_ref=1 / me_range=64 / chroma_me=1 / trellis=1 / 8x8dct=1 / cqm=0 / deadzone=21,11 / fast_pskip=1 / chroma_qp_offset=-3 / threads=12 / lookahead_threads=1 / sliced_threads=0 / nr=0 / decimate=1 / interlaced=0 / bluray_compat=0 / constrained_intra=0 / fgo=0 / bframes=13 / b_pyramid=1 / b_adapt=1 / b_bias=0 / direct=3 / weightb=1 / open_gop=0 / weightp=2 / keyint=250 / keyint_min=23 / scenecut=40 / intra_refresh=0 / rc_lookahead=60 / rc=2pass / mbtree=1 / bitrate=2000 / ratetol=1.0 / qcomp=0.72 / qpmin=0 / qpmax=69 / qpstep=4 / cplxblur=20.0 / qblur=0.5 / vbv_maxrate=62500 / vbv_bufsize=78125 / nal_hrd=none / filler=0 / ip_ratio=1.40 / aq=1:1.00
Language : English
Default : Yes
Forced : No
Color primaries : BT.709
Transfer characteristics : BT.709
Matrix coefficients : BT.709
Audio #1
ID : 2
Format : AC-3
Format/Info : Audio Coding 3
Mode extension : CM (complete main)
Format settings, Endianness : Big
Codec ID : A_AC3
Duration : 44mn 47s
Bit rate mode : Constant
Bit rate : 192 Kbps
Channel(s) : 2 channels
Channel positions : Front: L R
Sampling rate : 48.0 KHz
Bit depth : 16 bits
Compression mode : Lossy
Stream size : 61.5 MiB (8%)
Title : DVO (Кубик в кубе)
Language : Russian
Default : Yes
Forced : No
Audio #2
ID : 3
Format : AC-3
Format/Info : Audio Coding 3
Mode extension : CM (complete main)
Format settings, Endianness : Big
Codec ID : A_AC3
Duration : 44mn 47s
Bit rate mode : Constant
Bit rate : 192 Kbps
Channel(s) : 2 channels
Channel positions : Front: L R
Sampling rate : 48.0 KHz
Bit depth : 16 bits
Compression mode : Lossy
Stream size : 61.5 MiB (8%)
Title : Original
Language : English
Default : No
Forced : No
Text
ID : 4
Format : UTF-8
Codec ID : S_TEXT/UTF8
Codec ID/Info : UTF-8 Plain Text
Title : Slivas
Language : Russian
Default : No
Forced : No
-
Вне форума [Профиль] [ЛС]
Похожие темы
Форум Тема Автор Торрент Отв. Посл. сообщение
./templates/default/images/folder_dl.gif Обучающее видео David J. Nightingale | Искусство черно-белой фотографии (2014) [PCRec] Omen
1 | 0

0 | 1160

35

2014-06-20 22:55
Omen Последнее
./templates/default/images/folder_dl.gif Обучающее видео [Kузьмичeв] Ретушь чёрно-белых фотографий [2014, RUS] Omen
1 | 0

0 | 894

32

2015-02-25 15:00
Omen Последнее
./templates/default/images/folder_dl.gif Обучающее видео Александр Чернов | Курс по монтажу свадебных клипов (2016) PCRec Omen
1 | 0

0 | 270

9

2016-03-09 06:49
Omen Последнее
./templates/default/images/folder_dl.gif Фантастика, фэнтези, ужасы, мистика Василий Головачев | Черное время [2010] [MP3] }{@R0N
1 | 0

0 | 215

6

2018-04-02 13:45
}{@R0N Последнее
Показать сообщения:    
Ответить на тему

Текущее время: Сегодня 13:47

Часовой пояс: GMT + 3



Вы не можете начинать темы
Вы не можете отвечать на сообщения
Вы не можете редактировать свои сообщения
Вы не можете удалять свои сообщения
Вы не можете голосовать в опросах
Вы не можете прикреплять файлы к сообщениям
Вы не можете скачивать файлы