Сегодня идет свободное скачивание без начисления Download

Наконец-то она дала / Nakonec to ona dala ( [2016 г., All sex, Amateur, Teens, CamRip] (Unknown guy and girl)

Ответить на тему
 
Автор
Сообщение

XP1971 ®

Пол:

Стаж: 4 года 11 месяцев

Сообщений: 5756

Торрент-статистика

Пост 19-Окт-2016 01:13

[Цитировать]

Наконец-то она дала / Nakonec to ona dala- -Студия: N/A
Режиссер: N/A
Год выпуска: 2016 г.
Перевод: Отсутствует
Жанр: All sex, Amateur, Teens
Продолжительность: 00:12:19
Оригинальный аудиопоток: английский
В ролях:
Unknown guy and girl
Описание:
Неизвестная парочка снимает свой хоум на камеру. Девушка наконец-таки сподобилась дать своему парню, отчего тот решил запечатлеть сей счастливый момент на камеру.

Качество видео: CamRip
Контейнер: MP4
Видео кодек: AVC
Аудио кодек: AAC LC
Cубтитры: отсутствуют
Качество видео: CamRip
Аудио: AAC at 114 Кбит/сек 2 канала, 44,1 КГц
Видео: Видео: AVC at 1990 Кбит/сек 1280 x 720 (1.778) at 30.000 fps

Media Info

Код:
Общее
Полное имя : D:\Файлы с Интернета\Nakonec to ona dala\Nakonec to ona dala.mp4
Формат : MPEG-4
Профиль формата : Base Media
Идентификатор кодека : isom (isom/avc1)
Размер файла : 183 Мбайт
Продолжительность : 12 м.
Режим общего битрейта : Переменный
Общий поток : 2077 Кбит/сек
Дата кодирования : UTC 2016-06-23 16:51:13
Дата пометки : UTC 2016-06-23 16:51:13
Программа кодирования : FormatFactory
Видео
Идентификатор : 1
Формат : AVC
Формат/Информация : Advanced Video Codec
Профиль формата : [email protected]/*  */
Параметр CABAC формата : Нет
Параметр ReFrames формата : 1 кадр
Идентификатор кодека : avc1
Идентификатор кодека/Информация : Advanced Video Coding
Продолжительность : 12 м.
Битрейт : 1990 Кбит/сек
Максимальный битрейт : 4650 Кбит/сек
Ширина : 1280 пикселей
Высота : 720 пикселей
Соотношение сторон : 16:9
Режим частоты кадров : Постоянный
Частота кадров : 30,000 кадров/сек
Цветовое пространство : YUV
Субдискретизация насыщенности : 4:2:0
Битовая глубина : 8 бит
Тип развёртки : Прогрессивная
Бит/(Пиксели*Кадры) : 0.072
Размер потока : 173 Мбайт (94%)
Библиотека кодирования : x264 core 148 r2665 a01e339
Настройки программы : cabac=0 / ref=1 / deblock=1:0:0 / analyse=0x3:0x113 / me=hex / subme=7 / psy=1 / psy_rd=1.00:0.00 / mixed_ref=0 / me_range=16 / chroma_me=1 / trellis=1 / 8x8dct=1 / cqm=0 / deadzone=21,11 / fast_pskip=1 / chroma_qp_offset=-2 / threads=6 / lookahead_threads=1 / sliced_threads=0 / nr=0 / decimate=1 / interlaced=0 / bluray_compat=0 / constrained_intra=0 / bframes=0 / weightp=2 / keyint=250 / keyint_min=25 / scenecut=40 / intra_refresh=0 / rc_lookahead=40 / rc=abr / mbtree=1 / bitrate=1990 / ratetol=1.0 / qcomp=0.60 / qpmin=0 / qpmax=69 / qpstep=4 / ip_ratio=1.40 / aq=1:1.00
Дата кодирования : UTC 2016-06-23 16:51:13
Дата пометки : UTC 2016-06-23 16:51:34
Аудио
Идентификатор : 2
Формат : AAC
Формат/Информация : Advanced Audio Codec
Профиль формата : LC
Идентификатор кодека : 40
Продолжительность : 12 м.
Вид битрейта : Переменный
Битрейт : 114 Кбит/сек
Максимальный битрейт : 137 Кбит/сек
Каналы : 2 канала
Расположение каналов : Front: L R
Частота : 44,1 КГц
Частота кадров : 43,066 кадра/сек (1024 spf)
Метод сжатия : С потерями
Размер потока : 10,0 Мбайт (5%)
Дата кодирования : UTC 2016-06-23 16:51:27
Дата пометки : UTC 2016-06-23 16:51:34

Скринлист

Скриншоты





_________________
Вне форума [Профиль] [ЛС]
Показать сообщения:    
Ответить на тему

Текущее время: Сегодня 04:47

Часовой пояс: GMT + 3



Вы не можете начинать темы
Вы не можете отвечать на сообщения
Вы не можете редактировать свои сообщения
Вы не можете удалять свои сообщения
Вы не можете голосовать в опросах
Вы не можете прикреплять файлы к сообщениям
Вы не можете скачивать файлы