Сегодня идет свободное скачивание без начисления Download

Тайны Сильверхёйда / Jordskott / Сезон: 1 / Серии: 1-10 из 10 (Хенрик Бьёрн, Андерс Энгстрём) [2015, Швеция, Финляндия, Великобритания, Норвегия, фэнтези, триллер, детектив, BDRip 1080p] MVO (Sony Sci-Fi) + DVO (kiitos.tv) + Original + Subs (Rus)

Ответить на тему
 
Автор
Сообщение

Omen ®

Стаж: 5 лет 6 месяцев

Сообщений: 186946

Торрент-статистика

Пост 19-Окт-2016 01:00

[Цитировать]

-Тайны Сильверхёйда | Jordskott-- Год выпуска: 2015 (1 сезон)
Страна: Швеция, Финляндия, Великобритания, Норвегия
Жанр: Фэнтези, триллер, драма, детектив
Продолжительность: ~ 01:00:00
Перевод 1: Профессиональный многоголосый закадровый (по заказу ТК Sony Sci-Fi)
Перевод 2: Любительский двухголосый закадровый (kiitos.tv)
Субтитры: Русские (Станислав Бельков, «СКАНДИНАВСКИЙ КАЛЕЙДОСКОП»)--Режиссёр: Хенрик Бьёрн / Henrik Björn, Андерс Энгстрём / Anders Engström--В ролях: Moa Gammel (Ева Торнблад), Göran Ragnerstam (Йёран Васс), Richard Forsgren (Том Аронссон), Stina Sundlöf (Юсефин), Lia Boysen (Герда Гунарссон), Happy Jankell (Эсмеральда), Henrik Knutsson (Никлас Гунарссон), Ann Petrén (Мартина Сигвардссон), Vanja Blomkvist (Ильва), Lars-Erik Berenett (Юхан Торнблад), Hans Mosesson (Дед Олоф), Peter Andersson (Густав Бурэн), Ville Virtanen (Гарри Шторм), Nour El-Refai (Виктория), Johannes Brost (Пекка Кольонен), Louise Ryme (Петра), Yohio (Линус), Mira Gustafsson (Ида), Sigrid Johnson (Эмма), Gustav Lindh (Йёрген Ульссон), Felix Engström (Томас Линдер) и др.--Описание: Семь лет прошло с тех пор, как Ева потеряла дочь во время прогулки по лесу Сильверхёйд, давшем название одноименной шведской деревеньке. Отец Евы покончил жизнь самоубийством, и дочь возвращается в родную деревню, чтобы проводить отца, с которым она практически не общалась. Очень скоро она узнает, что в деревне снова пропал ребенок — Антон, сын руководителя местного целлюлозного завода. Поиски не дали никаких результатов, но владельцы завода что-то скрывают. Ева вспоминает о дочери — что если она до сих пор жива и бродит где-то в лесу, который порос таинственными легендами и слухами? Вскоре в Сильверхёйде начинается череда необъяснимых и странных событий, и Ева вместе с местной полицией попытается разобраться во всем этом и узнать, какие тайны скрывает лес Сильверхёйд.--

Доп. информация:

Источником русской аудиодорожки 1 послужил [url=viewtopic.php?t=5296397]релиз miha2154[/url]
В 4 и 5 серии, на вырезанные при показе каналом фрагменты, вставлена озвучка из аудиодорожки 2 (кiitos.tv)
Источником русской аудиодорожки 2 послужил релиз :
Перевод: Инна Елисеева
Озвучивание: kiitos, Chertenok
Сведение: kiitos
Перевод субтитров: Станислав Бельков, «СКАНДИНАВСКИЙ КАЛЕЙДОСКОП»
--Качество: BDRip 1080p
Формат: MKV
Видео кодек: H.264
Аудио кодек: AC3, DTS
Видео: MPEG-4 AVC, 1920x1080 (16:9), 25.000 fps, ~4500 kbps
Аудио 1: [Русский] AC3, 48 kHz, 2 ch, 192 kbps | Sony Sci-Fi
Аудио 2: [Русский] AC3, 48 kHz, 2 ch, 192 kbps | kiitos.tv
Аудио 3: [Шведский] DTS, 48 kHz, 6 ch, 1509 kbps
Субтитры: Русские (SRT)
--

MediaInfo

Код:
General
Unique ID                   : 189339614898238127607208700547037814005 (0x8E717BC00B8EFAA690BAD4A3081A5CF5)
Complete name               : I:\...\Jordskott.S01.1080p.BDRip\Jordskott.s01e01.1080p.BDRip.2xRus.Swe.mkv
Format                      : Matroska
Format version              : Version 4 / Version 2
File size                   : 2.53 GiB
Duration                    : 58 min 55 s
Overall bit rate            : 6 144 kb/s
Encoded date                : UTC 2016-10-16 00:49:05
Writing application         : mkvmerge v7.5.0 ('Glass Culture') 64bit built on Jan  4 2015 16:48:44
Writing library             : libebml v1.3.1 + libmatroska v1.4.2
Video
ID                          : 1
Format                      : AVC
Format/Info                 : Advanced Video Codec
Format profile              : High@L4.1
Format settings, CABAC      : Yes
Format settings, ReFrames   : 4 frames
Codec ID                    : V_MPEG4/ISO/AVC
Duration                    : 58 min 55 s
Bit rate                    : 4 248 kb/s
Width                       : 1 920 pixels
Height                      : 1 080 pixels
Display aspect ratio        : 16:9
Frame rate mode             : Constant
Frame rate                  : 25.000 FPS
Color space                 : YUV
Chroma subsampling          : 4:2:0
Bit depth                   : 8 bits
Scan type                   : Progressive
Bits/(Pixel*Frame)          : 0.082
Stream size                 : 1.75 GiB (69%)
Writing library             : x264 core 148 r2694 3b70645
Encoding settings           : cabac=1 / ref=4 / deblock=1:-3:-3 / analyse=0x3:0x113 / me=umh / subme=8 / psy=1 / psy_rd=1.00:0.15 / mixed_ref=1 / me_range=16 / chroma_me=1 / trellis=1 / 8x8dct=1 / cqm=0 / deadzone=21,11 / fast_pskip=0 / chroma_qp_offset=-3 / threads=18 / lookahead_threads=3 / sliced_threads=0 / nr=0 / decimate=1 / interlaced=0 / bluray_compat=0 / constrained_intra=0 / bframes=3 / b_pyramid=2 / b_adapt=1 / b_bias=0 / direct=1 / weightb=1 / open_gop=0 / weightp=2 / keyint=250 / keyint_min=25 / scenecut=40 / intra_refresh=0 / rc_lookahead=40 / rc=crf / mbtree=1 / crf=20.0 / qcomp=0.60 / qpmin=10 / qpmax=69 / qpstep=4 / ip_ratio=1.40 / aq=1:1.00
Default                     : Yes
Forced                      : No
Audio #1
ID                          : 2
Format                      : AC-3
Format/Info                 : Audio Coding 3
Mode extension              : CM (complete main)
Format settings, Endianness : Big
Codec ID                    : A_AC3
Duration                    : 58 min 55 s
Bit rate mode               : Constant
Bit rate                    : 192 kb/s
Channel(s)                  : 2 channels
Channel positions           : Front: L R
Sampling rate               : 48.0 kHz
Frame rate                  : 31.250 FPS (1536 spf)
Compression mode            : Lossy
Stream size                 : 80.9 MiB (3%)
Title                       : Sony Sci-Fi
Language                    : Russian
Default                     : Yes
Forced                      : No
Audio #2
ID                          : 3
Format                      : AC-3
Format/Info                 : Audio Coding 3
Mode extension              : CM (complete main)
Format settings, Endianness : Big
Codec ID                    : A_AC3
Duration                    : 58 min 55 s
Bit rate mode               : Constant
Bit rate                    : 192 kb/s
Channel(s)                  : 2 channels
Channel positions           : Front: L R
Sampling rate               : 48.0 kHz
Frame rate                  : 31.250 FPS (1536 spf)
Compression mode            : Lossy
Stream size                 : 80.9 MiB (3%)
Title                       : kiitos.tv
Language                    : Russian
Default                     : No
Forced                      : No
Audio #3
ID                          : 4
Format                      : DTS
Format/Info                 : Digital Theater Systems
Mode                        : 16
Format settings, Endianness : Big
Codec ID                    : A_DTS
Duration                    : 58 min 55 s
Bit rate mode               : Constant
Bit rate                    : 1 509 kb/s
Channel(s)                  : 6 channels
Channel positions           : Front: L C R, Side: L R, LFE
Sampling rate               : 48.0 kHz
Frame rate                  : 93.750 FPS (512 spf)
Bit depth                   : 16 bits
Compression mode            : Lossy
Stream size                 : 636 MiB (25%)
Language                    : Swedish
Default                     : No
Forced                      : No
Text
ID                          : 5
Format                      : UTF-8
Codec ID                    : S_TEXT/UTF8
Codec ID/Info               : UTF-8 Plain Text
Duration                    : 57 min 43 s
Bit rate                    : 50 b/s
Count of elements           : 345
Stream size                 : 21.4 KiB (0%)
Title                       : Станислав Бельков, «СКАНДИНАВСКИЙ КАЛЕЙДОСКОП»
Language                    : Russian
Default                     : No
Forced                      : No
Menu
00:00:00.000                : en:00:00:00.000
00:04:19.520                : en:00:04:19.520
00:14:36.680                : en:00:14:36.680
00:30:48.240                : en:00:30:48.240
00:45:21.320                : en:00:45:21.320
00:58:54.720                : en:00:58:54.720
--
Вне форума [Профиль] [ЛС]
Похожие темы
Форум Тема Автор Торрент Отв. Посл. сообщение
./templates/default/images/folder_dl.gif Приключения и квесты Secrets of the Dark: The Flower of Shadow Collector\'s Edition / Тайны Тьмы: Цветок Теней. Коллекционное издание [P] [RUS / ENG] (2014) Omen
6 | 0

0 | 1289

17

2015-06-11 12:04
Omen Последнее
Показать сообщения:    
Ответить на тему

Текущее время: Сегодня 07:38

Часовой пояс: GMT + 3



Вы не можете начинать темы
Вы не можете отвечать на сообщения
Вы не можете редактировать свои сообщения
Вы не можете удалять свои сообщения
Вы не можете голосовать в опросах
Вы не можете прикреплять файлы к сообщениям
Вы не можете скачивать файлы