Сегодня идет свободное скачивание без начисления Download

Мушкетеры / The Musketeers / Сезон: 3 / Серии: 1-10 из 10 (Энди Хэй, Николас Рентон, Фэррен Блэкберн) [2016, Великобритания, драма, приключения, BDRip 1080p] MVO (LostFilm) + Original Eng + Sub Eng

Ответить на тему
 
Автор
Сообщение

Omen ®

Стаж: 5 лет 11 месяцев

Сообщений: 184329

Торрент-статистика

Пост 17-Окт-2016 01:00

[Цитировать]

Мушкетеры / The Musketeers
Год выпуска: 2016
Страна: Великобритания
Жанр: Драма, приключения
Продолжительность серии: ~ 00:57:00
Перевод: Профессиональный многоголосый закадровый (LostFilm)
Режиссёр: Энди Хэй, Николас Рентон, Фэррен Блэкберн
В ролях: Люк Паскуалино, Том Бёрк, Ховард Чарльз, Сантьяго Кабрера, Хьюго Спир, Райан Гейдж, Тамла Кари, Александра Доулинг, Мэйми МакКой, Питер Капальди и другие
Описание: Мушкетеры собираются на улицах Парижа в семнадцатом веке, где закон и порядок являются больше идеей, чем реальностью. Личные телохранители короля Людовика XIII, Атос, Арамис и Портос решительно стоят за социальную справедливость, за честь, за доблесть, так же за любовь — и за острые ощущения.
Сэмпл
Качество: BDRip 1080p
Контейнер: MKV
Видео: AVC, 1920x1080 (16:9), 25 fps, ~ 18000 kbps, 0.360 bit/pixel
Аудио 1: Русский, DTS, 48 kHz, 2 channels, 1509 kbps (LostFilm)
Аудио 2: Английский, DTS, 48 kHz, 2 channels, 1509 kbps
Субтитры: Английские (Softsub SRT)
Подробнее о релизе:
• Работа со всем звуком: k-marat-s
• Сохранены оригинальные чаптеры, как на Blu-ray

MediaInfo

General
Unique ID : 190347789613433604793864536064807624710 (0x8F33A699F0BAD91FCE8ECB7D4DA36006)
Complete name : /The.Musketeers.S03.1080p.BluRay.Rus.Eng.HDCLUB/The.Musketeers.S03E01.1080p.BluRay.Rus.Eng.HDCLUB.mkv
Format : Matroska
Format version : Version 4 / Version 2
File size : 9.27 GiB
Duration : 58mn 45s
Overall bit rate : 22.6 Mbps
Movie name : The Musketeers 03x01 – Release for HDCLUB
Encoded date : UTC 2016-10-10 08:24:51
Writing application : mkvmerge v8.2.0 ('World of Adventure') 64bit
Writing library : libebml v1.3.1 + libmatroska v1.4.2
Video
ID : 1
Format : AVC
Format/Info : Advanced Video Codec
Format profile : High@L4.1
Format settings, CABAC : Yes
Format settings, ReFrames : 4 frames
Codec ID : V_MPEG4/ISO/AVC
Duration : 58mn 45s
Bit rate : 19.6 Mbps
Width : 1 920 pixels
Height : 1 080 pixels
Display aspect ratio : 16:9
Frame rate mode : Constant
Frame rate : 25.000 fps
Color space : YUV
Chroma subsampling : 4:2:0
Bit depth : 8 bits
Scan type : Progressive
Bits/(Pixel*Frame) : 0.378
Stream size : 8.03 GiB (87%)
Title : The Musketeers 03x01 – Release for HDCLUB
Writing library : x264 core 148 r2694 3b70645
Encoding settings : cabac=1 / ref=4 / deblock=1:-3:-3 / analyse=0x3:0x133 / me=umh / subme=10 / psy=1 / psy_rd=1.00:0.00 / mixed_ref=1 / me_range=24 / chroma_me=1 / trellis=2 / 8x8dct=1 / cqm=0 / deadzone=21,11 / fast_pskip=1 / chroma_qp_offset=-2 / threads=6 / lookahead_threads=1 / sliced_threads=0 / nr=0 / decimate=1 / interlaced=0 / bluray_compat=0 / constrained_intra=0 / bframes=8 / b_pyramid=2 / b_adapt=2 / b_bias=0 / direct=3 / weightb=1 / open_gop=0 / weightp=2 / keyint=250 / keyint_min=25 / scenecut=40 / intra_refresh=0 / rc_lookahead=60 / rc=crf / mbtree=0 / crf=17.0 / qcomp=0.60 / qpmin=0 / qpmax=69 / qpstep=4 / vbv_maxrate=62500 / vbv_bufsize=78125 / crf_max=0.0 / nal_hrd=none / filler=0 / ip_ratio=1.40 / pb_ratio=1.30 / aq=1:0.80
Language : English
Default : Yes
Forced : No
Audio #1
ID : 2
Format : DTS
Format/Info : Digital Theater Systems
Mode : 16
Format settings, Endianness : Big
Codec ID : A_DTS
Duration : 58mn 45s
Bit rate mode : Constant
Bit rate : 1 509 Kbps
Channel(s) : 2 channels
Channel positions : Front: L R
Sampling rate : 48.0 KHz
Frame rate : 93.750 fps (512 spf)
Bit depth : 16 bits
Compression mode : Lossy
Stream size : 634 MiB (7%)
Title : LostFilm
Language : Russian
Default : Yes
Forced : No
Audio #2
ID : 3
Format : DTS
Format/Info : Digital Theater Systems
Mode : 16
Format settings, Endianness : Big
Codec ID : A_DTS
Duration : 58mn 45s
Bit rate mode : Constant
Bit rate : 1 509 Kbps
Channel(s) : 2 channels
Channel positions : Front: L R
Sampling rate : 48.0 KHz
Frame rate : 93.750 fps (512 spf)
Bit depth : 16 bits
Compression mode : Lossy
Stream size : 634 MiB (7%)
Title : Original
Language : English
Default : No
Forced : No
Text
ID : 4
Format : UTF-8
Codec ID : S_TEXT/UTF8
Codec ID/Info : UTF-8 Plain Text
Duration : 57mn 53s
Bit rate : 44 bps
Count of elements : 619
Stream size : 18.8 KiB (0%)
Title : eng-sub
Language : English
Default : No
Forced : No
Menu
00:00:00.000 : en:Chapter 01
00:09:20.640 : en:Chapter 02
00:23:06.120 : en:Chapter 03
00:29:31.240 : en:Chapter 04
00:40:44.000 : en:Chapter 05
00:50:07.560 : en:Chapter 06

Скриншоты




Вне форума [Профиль] [ЛС]
Показать сообщения:    
Ответить на тему

Текущее время: Сегодня 07:55

Часовой пояс: GMT + 3



Вы не можете начинать темы
Вы не можете отвечать на сообщения
Вы не можете редактировать свои сообщения
Вы не можете удалять свои сообщения
Вы не можете голосовать в опросах
Вы не можете прикреплять файлы к сообщениям
Вы не можете скачивать файлы