Сегодня идет свободное скачивание без начисления Download

Доктор Кто: Фильм / Doctor Who: The Movie (Джеффри Сакс) [1996, фантастика, драма, приключения, BDRip 720p] original + rus sub (TrueTransLate)

Ответить на тему
 
Автор
Сообщение

Omen ®

Стаж: 6 лет 1 месяц

Сообщений: 184308

Торрент-статистика

Пост 17-Окт-2016 01:00

[Цитировать]

Доктор Кто / Doctor Who
Год выпуска: 1996
Страна: США, Великобритания
Жанр: фантастика, приключения
Продолжительность: 1 час 25 минут
Перевод: Субтитры от TrueTransLate
Сценарист: Мэттью Джейкобс
Режиссёр: Джеффри Сакс
В ролях: Пол Макганн (Paul McGann), Дафна Эшбрук (Daphne Ashbrook), Эрик Робертс (Eric Roberts), Сильвестр Маккой (Sylvester McCoy), Йи Джи Цо (Yee Jee Tso) и др.
Описание: Доктор близится к окончанию своей седьмой жизни. Ему поручили перевезти останки его сородича, Повелителя Времени Мастера, на их родную планету. Но несмотря на все предосторожности, давний враг Доктора выживает. Мастер заставляет ТАРДИС совершить аварийную посадку в Сан-Франциско 1999 года, сбегает и приступает к выполнению своего плана. Сможет ли Доктор выжить после уличной перестрелки, найти атомные часы и остановить своего врага?
Доп. информация:
Перевод: Little_Squirrel
Для группы TrueTransLate
Сэмпл: http://multi-up.com/1123114
Качество: BDRip 720p
Контейнер: MKV
Видео: AVC / 944:720 / 4:3 / 25.000 fps / 7295 kbps / 0.340 bit/pixel / High Level 4.1
Аудио (eng): DTS / 48 kHz / 2 ch / 1509 kbps
Субтитры: русские (TrueTransLate)

MediaInfo

General
Unique ID: 220298246021765391283248745247016635379 (0xA5BBE61C67C17D0B91684BE3AEEA4BF3)
Complete name: D:\Видео\Doctor Who\Doctor Who The Movie 1996 720p BluRay TrueTransLate\Doctor.Who.The.Movie.1996.720p.BluRay.mkv
Format: Matroska
Format version: Version 4 / Version 2
File size: 4.37 GiB
Duration: 1h 25mn
Overall bit rate: 7 295 Kbps
Encoded date: UTC 2016-09-25 15:36:06
Writing application: mkvmerge v9.4.2 ('So High') 32bit
Writing library: libebml v1.3.4 + libmatroska v1.4.5
Video
ID: 2
Format: AVC
Format/Info: Advanced Video Codec
Format profile: High@L4.1
Format settings, CABAC: Yes
Format settings, ReFrames: 5 frames
Codec ID: V_MPEG4/ISO/AVC
Duration: 1h 25mn
Bit rate: 5 784 Kbps
Width: 944 pixels
Height: 720 pixels
Display aspect ratio: 4:3
Frame rate mode: Constant
Frame rate: 25.000 fps
Color space: YUV
Chroma subsampling: 4:2:0
Bit depth: 8 bits
Scan type: Progressive
Bits/(Pixel*Frame): 0.340
Stream size: 3.38 GiB (77%)
Writing library: x264 core 148 r2705 3f5ed56
Encoding settings: cabac=1 / ref=5 / deblock=1:-3:-3 / analyse=0x3:0x133 / me=umh / subme=8 / psy=1 / psy_rd=1.00:0.00 / mixed_ref=1 / me_range=16 / chroma_me=1 / trellis=1 / 8x8dct=1 / cqm=0 / deadzone=21,11 / fast_pskip=0 / chroma_qp_offset=-2 / threads=6 / lookahead_threads=1 / sliced_threads=0 / nr=0 / decimate=1 / interlaced=0 / bluray_compat=0 / constrained_intra=0 / bframes=3 / b_pyramid=2 / b_adapt=2 / b_bias=0 / direct=3 / weightb=1 / open_gop=0 / weightp=2 / keyint=250 / keyint_min=25 / scenecut=40 / intra_refresh=0 / rc_lookahead=50 / rc=2pass / mbtree=1 / bitrate=5784 / ratetol=1.0 / qcomp=0.60 / qpmin=0 / qpmax=69 / qpstep=4 / cplxblur=20.0 / qblur=0.5 / vbv_maxrate=62500 / vbv_bufsize=78125 / nal_hrd=none / filler=0 / ip_ratio=1.40 / aq=1:1.00
Default: Yes
Forced: No
Audio
ID: 1
Format: DTS
Format/Info: Digital Theater Systems
Mode: 16
Format settings, Endianness: Big
Codec ID: A_DTS
Duration: 1h 25mn
Bit rate mode: Constant
Bit rate: 1 509 Kbps
Channel(s): 2 channels
Channel positions: Front: L R
Sampling rate: 48.0 KHz
Bit depth: 24 bits
Compression mode: Lossy
Stream size: 926 MiB (21%)
Language: English
Default: Yes
Forced: No

Скриншоты


Вне форума [Профиль] [ЛС]
Похожие темы
Форум Тема Автор Торрент Отв. Посл. сообщение
./templates/default/images/folder_dl.gif Психология, Тренинг, Саморазвитие Фучжун Чжэн - Лучший доктор — ты сам [Неизвестно, 2013, Саморазвитие, медицина, 128 kbps] O.S.A.
1 | 0

0 | 1832

12

2014-07-28 20:13
O.S.A. Последнее
Показать сообщения:    
Ответить на тему

Текущее время: Сегодня 17:43

Часовой пояс: GMT + 3



Вы не можете начинать темы
Вы не можете отвечать на сообщения
Вы не можете редактировать свои сообщения
Вы не можете удалять свои сообщения
Вы не можете голосовать в опросах
Вы не можете прикреплять файлы к сообщениям
Вы не можете скачивать файлы