Сегодня идет свободное скачивание без начисления Download

Обитель зла. Квадрология / Resident Evil. Quadrology (Пол У. С. Андерсон) [2002–2010, Ужасы, BDRip 720p]

Ответить на тему
 
Автор
Сообщение

zeke ®

Пол:

Стаж: 7 лет 5 месяцев

Сообщений: 96

Торрент-статистика

Пост 08-Мар-2011 01:14

[Цитировать]

Обитель зла / Resident Evil
«From the Director of Mortal Combat and Event Horizon.»
- Год выхода: 2002
Страна: Германия, Франция, Великобритания
Жанр: Ужасы
Продолжительность: 01:40:30
Перевод: Профессиональный (полное дублирование)
Субтитры: Отсутствуют
Режиссер: Пол У. С. Андерсон
В ролях: Милла Йовович, Мишель Родригес, Эрик Мэбиас, Джеймс Пьюрфой, Мартин Крюз, Колин Сэлмон, Райан МакКласки, Оскар Пирс, Индра Ове, Анна Болт
Описание: В гигантской подземной лаборатории на волю вырывается опаснейший вирус, мгновенно превращая своих жертв в прожорливых зомби. Достаточно одного их укуса или царапины страшных когтей, чтобы человек стал обезумевшим пожирателем живой плоти.Военные посылают в секретный комплекс, кишащий ужасными мутировавшими животными и голодными монстрами, группу спецназа, к которой присоединяются очаровательная Элис и отважный полицейский Мэтт. У них есть только три часа, чтобы уничтожить вирус до того, как он распространится по всей Земле…
Качество: BDRip 720p
Контейнер: MKV
Видео кодек: H.264
Аудио кодек: AC3
Видео: 1280x688 (16:9), 23.976 fps, 3 821 Kbps, H.264, Profile High@L4.1
Аудио: AC3, Russian, 5.1 channels, 448kbps, 16 bits, 48.0 KHz

MediaInfo

General
Unique ID : 233676464822586075853469537615920680006 (0xAFCC733919C4C60E978F0F9DC8B6CC46)
Complete name : E:\Обитель зла (1-4) [BDRip 720p] (2002, 2004, 2007, 2010)\Обитель зла [BDRip 720p] (2002).mkv
Format : Matroska
File size : 3.00 GiB
Duration : 1h 40mn
Overall bit rate : 4 269 Kbps
Encoded date : UTC 2011-03-07 19:02:31
Writing application : mkvmerge v4.5.0 ('Speed of Light') сборка от Feb 1 2011 02:10:32
Writing library : libebml v1.2.0 + libmatroska v1.1.0
Video
ID : 1
Format : AVC
Format/Info : Advanced Video Codec
Format profile : High@L4.1
Format settings, CABAC : Yes
Format settings, ReFrames : 16 frames
Codec ID : V_MPEG4/ISO/AVC
Duration : 1h 40mn
Bit rate : 3 821 Kbps
Width : 1 280 pixels
Height : 688 pixels
Display aspect ratio : 1.860
Frame rate : 23.976 fps
Color space : YUV
Chroma subsampling : 4:2:0
Bit depth : 8 bits
Scan type : Progressive
Bits/(Pixel*Frame) : 0.181
Stream size : 2.62 GiB (88%)
Title : Freeisland.HD
Writing library : x264 core 112 r1867 22bfd31
Encoding settings : cabac=1 / ref=16 / deblock=1:-1:-1 / analyse=0x3:0x133 / me=hex / subme=8 / psy=1 / psy_rd=1.00:0.15 / mixed_ref=1 / me_range=16 / chroma_me=1 / trellis=1 / 8x8dct=1 / cqm=0 / deadzone=21,11 / fast_pskip=1 / chroma_qp_offset=-3 / threads=2 / sliced_threads=0 / nr=0 / decimate=1 / interlaced=0 / constrained_intra=0 / bframes=8 / b_pyramid=2 / b_adapt=2 / b_bias=0 / direct=3 / weightb=1 / open_gop=0 / weightp=2 / keyint=250 / keyint_min=23 / scenecut=40 / intra_refresh=0 / rc_lookahead=50 / rc=2pass / mbtree=1 / bitrate=3821 / ratetol=1.0 / qcomp=0.60 / qpmin=0 / qpmax=51 / qpstep=4 / cplxblur=20.0 / qblur=0.5 / ip_ratio=1.40 / aq=1:1.00
Language : English
Audio
ID : 2
Format : AC-3
Format/Info : Audio Coding 3
Mode extension : CM (complete main)
Codec ID : A_AC3
Duration : 1h 40mn
Bit rate mode : Constant
Bit rate : 448 Kbps
Channel(s) : 6 channels
Channel positions : Front: L C R, Side: L R, LFE
Sampling rate : 48.0 KHz
Bit depth : 16 bits
Compression mode : Lossy
Stream size : 322 MiB (10%)
Title : AC3, Russian, 5.1 channels, 448 kbps, 16 bits, 48.0 KHz

Скриншоты

   
--Обитель зла 2: Апокалипсис / Resident Evil: Apocalypse
«She went through the catacombs, a zombie-infested. Now on her way to a city...»
- Год выхода: 2004
Страна: Германия, Франция, Великобритания
Жанр: Ужасы
Продолжительность: 01:33:48
Перевод: Профессиональный (полное дублирование)
Субтитры: Отсутствуют
Режиссер: Пол У. С. Андерсон
В ролях: Милла Йовович, Сиенна Гиллори, Одед Фер, Томас Кречманн, Софи Вавасо, Разаак Адоти, Джаред Харрис, Майк Еппс, Сандрин Холт, Мэттью Дж. Тейлор
Описание: Действие картины разворачивается на улицах печально известного Ракун-сити, города, контролируемого могущественной корпорацией «Амбрелла». После химический катастрофы все жители стали медленно превращаться в зомби, а те немногочисленные граждане, чей разум ещё не был до конца изъеден ужасным вирусом, доживали свои последние дни в атмосфере страха и желания скорейшей смерти…
Качество: BDRip 720p
Контейнер: MKV
Видео кодек: H.264
Аудио кодек: AC3
Видео: 1280x512 (16:9), 23.976 fps, 4 126 Kbps, H.264, Profile High@L4.1
Аудио: AC3, Russian, 5.1 channels, 448kbps, 16 bits, 48.0 KHz

MediaInfo

General
Unique ID : 226104999014448770131708459156464911977 (0xAA1A3D23291973D09D58976DDC62C669)
Complete name : E:\Обитель зла (1-4) [BDRip 720p] (2002, 2004, 2007, 2010)\Обитель зла 2 [BDRip 720p] (2004).mkv
Format : Matroska
File size : 3.00 GiB
Duration : 1h 33mn
Overall bit rate : 4 575 Kbps
Encoded date : UTC 2011-03-07 19:05:04
Writing application : mkvmerge v4.5.0 ('Speed of Light') сборка от Feb 1 2011 02:10:32
Writing library : libebml v1.2.0 + libmatroska v1.1.0
Video
ID : 1
Format : AVC
Format/Info : Advanced Video Codec
Format profile : High@L4.1
Format settings, CABAC : Yes
Format settings, ReFrames : 16 frames
Codec ID : V_MPEG4/ISO/AVC
Duration : 1h 33mn
Bit rate : 4 126 Kbps
Width : 1 280 pixels
Height : 512 pixels
Display aspect ratio : 2.500
Frame rate : 23.976 fps
Color space : YUV
Chroma subsampling : 4:2:0
Bit depth : 8 bits
Scan type : Progressive
Bits/(Pixel*Frame) : 0.263
Stream size : 2.64 GiB (88%)
Title : Freeisland.HD
Writing library : x264 core 112 r1867 22bfd31
Encoding settings : cabac=1 / ref=16 / deblock=1:-1:-1 / analyse=0x3:0x133 / me=hex / subme=8 / psy=1 / psy_rd=1.00:0.15 / mixed_ref=1 / me_range=16 / chroma_me=1 / trellis=1 / 8x8dct=1 / cqm=0 / deadzone=21,11 / fast_pskip=1 / chroma_qp_offset=-3 / threads=2 / sliced_threads=0 / nr=0 / decimate=1 / interlaced=0 / constrained_intra=0 / bframes=8 / b_pyramid=2 / b_adapt=2 / b_bias=0 / direct=3 / weightb=1 / open_gop=0 / weightp=2 / keyint=250 / keyint_min=23 / scenecut=40 / intra_refresh=0 / rc_lookahead=50 / rc=2pass / mbtree=1 / bitrate=4126 / ratetol=1.0 / qcomp=0.60 / qpmin=0 / qpmax=51 / qpstep=4 / cplxblur=20.0 / qblur=0.5 / ip_ratio=1.40 / aq=1:1.00
Language : English
Audio
ID : 2
Format : AC-3
Format/Info : Audio Coding 3
Mode extension : CM (complete main)
Codec ID : A_AC3
Duration : 1h 33mn
Bit rate mode : Constant
Bit rate : 448 Kbps
Channel(s) : 6 channels
Channel positions : Front: L C R, Side: L R, LFE
Sampling rate : 48.0 KHz
Bit depth : 16 bits
Compression mode : Lossy
Stream size : 301 MiB (10%)
Title : AC3, Russian, 5.1 channels, 448 kbps, 16 bits, 48.0 KHz
Language : Russian

Скриншоты

   
--Обитель зла 3 / Resident Evil: Extinction
«At this time, without compromise»
- Год выхода: 2007
Страна: США, Германия, Франция, Великобритания, Австралия
Жанр: Ужасы
Продолжительность: 01:34:05
Перевод: Профессиональный (полное дублирование)
Субтитры: Отсутствуют
Режиссер: Пол У. С. Андерсон
В ролях: Милла Йовович, Одед Фер, Эли Лартер, Айэйн Глен, Ашанти, Кристофер Иган, Спенсер Лок, Мэттью Мэрсден, Линден Эшби, Джейсон О'Мара
Описание: Элис, не раз уже спасавшая мир от смертельных вирусов и неминуемой гибели, вновь взялась за оружие. На этот раз ей предстоит сразиться с корпорацией «Амбрелла», работающей над реализацией зверского антигуманного проекта. Коварные политики и прагматичные ученые стремятся уничтожить людей и заменить их на более «совершенные» создания, заселив Землю неуязвимыми бессмертными клонами…
Качество: BDRip 720p
Контейнер: MKV
Видео кодек: H.264
Аудио кодек: AC3
Видео: 1280x528 (16:9), 23.976 fps, 4 112 Kbps, H.264, Profile High@L4.1
Аудио: AC3, Russian, 5.1 channels, 448kbps, 16 bits, 48.0 KHz

MediaInfo

General
Unique ID : 240210673079213015498783565849856331167 (0xB4B6E49024EE7F248423B799A3B84D9F)
Complete name : E:\Обитель зла (1-4) [BDRip 720p] (2002, 2004, 2007, 2010)\Обитель зла 3 [BDRip 720p] (2007).mkv
Format : Matroska
File size : 3.00 GiB
Duration : 1h 34mn
Overall bit rate : 4 561 Kbps
Encoded date : UTC 2011-03-07 19:12:48
Writing application : mkvmerge v4.5.0 ('Speed of Light') сборка от Feb 1 2011 02:10:32
Writing library : libebml v1.2.0 + libmatroska v1.1.0
Video
ID : 1
Format : AVC
Format/Info : Advanced Video Codec
Format profile : High@L4.1
Format settings, CABAC : Yes
Format settings, ReFrames : 16 frames
Codec ID : V_MPEG4/ISO/AVC
Duration : 1h 34mn
Bit rate : 4 112 Kbps
Width : 1 280 pixels
Height : 528 pixels
Display aspect ratio : 2.40:1
Frame rate : 23.976 fps
Color space : YUV
Chroma subsampling : 4:2:0
Bit depth : 8 bits
Scan type : Progressive
Bits/(Pixel*Frame) : 0.254
Stream size : 2.64 GiB (88%)
Title : Freeisland.HD
Writing library : x264 core 112 r1867 22bfd31
Encoding settings : cabac=1 / ref=16 / deblock=1:-1:-1 / analyse=0x3:0x133 / me=hex / subme=8 / psy=1 / psy_rd=1.00:0.15 / mixed_ref=1 / me_range=16 / chroma_me=1 / trellis=1 / 8x8dct=1 / cqm=0 / deadzone=21,11 / fast_pskip=1 / chroma_qp_offset=-3 / threads=2 / sliced_threads=0 / nr=0 / decimate=1 / interlaced=0 / constrained_intra=0 / bframes=8 / b_pyramid=2 / b_adapt=2 / b_bias=0 / direct=3 / weightb=1 / open_gop=0 / weightp=2 / keyint=250 / keyint_min=23 / scenecut=40 / intra_refresh=0 / rc_lookahead=50 / rc=2pass / mbtree=1 / bitrate=4112 / ratetol=1.0 / qcomp=0.60 / qpmin=0 / qpmax=51 / qpstep=4 / cplxblur=20.0 / qblur=0.5 / ip_ratio=1.40 / aq=1:1.00
Language : English
Audio
ID : 2
Format : AC-3
Format/Info : Audio Coding 3
Mode extension : CM (complete main)
Codec ID : A_AC3
Duration : 1h 34mn
Bit rate mode : Constant
Bit rate : 448 Kbps
Channel(s) : 6 channels
Channel positions : Front: L C R, Side: L R, LFE
Sampling rate : 48.0 KHz
Bit depth : 16 bits
Compression mode : Lossy
Stream size : 302 MiB (10%)
Title : AC3, Russian, 5.1 channels, 448 kbps, 16 bits, 48.0 KHz
Language : Russian

Скриншоты

   
--Обитель зла 4: Жизнь после смерти / Resident Evil: Afterlife
«Experience a new dimension of evil»
- Год выхода: 2010
Страна: США, Германия, Франция, Великобритания, Австралия
Жанр: Ужасы
Продолжительность: 01:36:52
Перевод: Профессиональный (полное дублирование)
Субтитры: Отсутствуют
Режиссер: Пол У. С. Андерсон
В ролях: Милла Йовович, Эли Лартер, Ким Коутс, Шоун Робертс, Серджо Перис-Менчета, Спенсер Лок, Борис Коджо, Вентворт Миллер, Сиенна Гиллори, Кейси Барнфилд
Описание: Элис продолжает свой путь в мире, поражённом вирусной инфекцией, превращающей людей в нежить. Героиня ищет оставшихся в живых, чтобы вывести их в безопасное место. Её смертельная битва с корпорацией Амбрелла выходит на новый уровень…
Качество: BDRip 720p
Контейнер: MKV
Видео кодек: H.264
Аудио кодек: AC3
Видео: 1280x528 (16:9), 23.976 fps, 3 981 Kbps, H.264, Profile High@L4.1
Аудио: AC3, Russian, 5.1 channels, 448kbps, 16 bits, 48.0 KHz

MediaInfo

General
Unique ID : 247962977253081592615504782291533679755 (0xBA8BEEAB27947FDAA6863E5F4401CC8B)
Complete name : E:\Обитель зла (1-4) [BDRip 720p] (2002, 2004, 2007, 2010)\Обитель зла 4 [BDRip 720p] (2010).mkv
Format : Matroska
File size : 3.00 GiB
Duration : 1h 36mn
Overall bit rate : 4 430 Kbps
Encoded date : UTC 2011-03-07 19:09:51
Writing application : mkvmerge v4.5.0 ('Speed of Light') сборка от Feb 1 2011 02:10:32
Writing library : libebml v1.2.0 + libmatroska v1.1.0
Video
ID : 1
Format : AVC
Format/Info : Advanced Video Codec
Format profile : High@L4.1
Format settings, CABAC : Yes
Format settings, ReFrames : 16 frames
Codec ID : V_MPEG4/ISO/AVC
Duration : 1h 36mn
Bit rate : 3 981 Kbps
Width : 1 280 pixels
Height : 528 pixels
Display aspect ratio : 2.40:1
Frame rate : 23.976 fps
Color space : YUV
Chroma subsampling : 4:2:0
Bit depth : 8 bits
Scan type : Progressive
Bits/(Pixel*Frame) : 0.246
Stream size : 2.63 GiB (88%)
Title : Freeisland.HD
Writing library : x264 core 112 r1867 22bfd31
Encoding settings : cabac=1 / ref=16 / deblock=1:-1:-1 / analyse=0x3:0x133 / me=hex / subme=8 / psy=1 / psy_rd=1.00:0.15 / mixed_ref=1 / me_range=16 / chroma_me=1 / trellis=1 / 8x8dct=1 / cqm=0 / deadzone=21,11 / fast_pskip=1 / chroma_qp_offset=-3 / threads=2 / sliced_threads=0 / nr=0 / decimate=1 / interlaced=0 / constrained_intra=0 / bframes=8 / b_pyramid=2 / b_adapt=2 / b_bias=0 / direct=3 / weightb=1 / open_gop=0 / weightp=2 / keyint=250 / keyint_min=23 / scenecut=40 / intra_refresh=0 / rc_lookahead=50 / rc=2pass / mbtree=1 / bitrate=3981 / ratetol=1.0 / qcomp=0.60 / qpmin=0 / qpmax=51 / qpstep=4 / cplxblur=20.0 / qblur=0.5 / ip_ratio=1.40 / aq=1:1.00
Language : English
Audio
ID : 2
Format : AC-3
Format/Info : Audio Coding 3
Mode extension : CM (complete main)
Codec ID : A_AC3
Duration : 1h 36mn
Bit rate mode : Constant
Bit rate : 448 Kbps
Channel(s) : 6 channels
Channel positions : Front: L C R, Side: L R, LFE
Sampling rate : 48.0 KHz
Bit depth : 16 bits
Compression mode : Lossy
Stream size : 310 MiB (10%)
Title : AC3, Russian, 5.1 channels, 448 kbps, 16 bits, 48.0 KHz
Language : Russian

Скриншоты

   

_________________
|LOST|
Вне форума [Профиль] [ЛС]
Показать сообщения:    
Ответить на тему

Текущее время: Сегодня 06:22

Часовой пояс: GMT + 3



Вы не можете начинать темы
Вы не можете отвечать на сообщения
Вы не можете редактировать свои сообщения
Вы не можете удалять свои сообщения
Вы не можете голосовать в опросах
Вы не можете прикреплять файлы к сообщениям
Вы не можете скачивать файлы