Сегодня идет свободное скачивание без начисления Download

Легенды завтрашнего дня / DC\'s Legends of Tomorrow / Сезон: 2 / Серии: 1 из 16 (Дермотт Даунс, Глен Винтер, Джо Данте) [2016, фантастика, боевик, приключения, HDTVRip] MVO (Jaskier) + Original

Ответить на тему
 
Автор
Сообщение

Omen ®

Стаж: 5 лет 11 месяцев

Сообщений: 184329

Торрент-статистика

Пост 16-Окт-2016 01:00

[Цитировать]

Легенды завтрашнего дня / DC's Legends of Tomorrow -Оригинальное название: DC's Legends of Tomorrow
Русское название: Легенды завтрашнего дня
Год выпуска: 2016
Страна: США
Жанр: фантастика, экранизация комиксов, боевик, приключения
Продолжительность: ~40 минут (серия)-Перевод: Профессиональный (многоголосый закадровый) Студия Jaskier-Режиссёр: Дермотт Даунс, Глен Винтер, Джо Данте-В ролях: Виктор Гарбер, Брэндон Рут, Кейти Лотц, Артур Дарвилл, Сиара Рене, Франц Драмех, Доминик Пёрселл, Вентворт Миллер, Каспер Крамп, Фальк Хеншел и др.-Описание: Увидев будущее, которого обязательно нужно избежать, Рип Хантер, путешественник во времени, собирает команду из героев и злодеев, чтобы противостоять смертельной угрозе. На кону стоит не только наша планета, но и все время в целом. Сможет ли эта команда победить бессмертное зло, абсолютно непохожее на то, что они видели раньше?-Сэмпл-Качество: HDTVRip
Формат: AVI
Видео кодек: XviD
Аудио кодек: AC3, MP3
Видео: XviD, 720x408 (16:9), 23.976 fps, ~1300 kbps, 0.135bit/pixel-Аудио 1: Dolby AC3, 48 kHz, stereo, 192 kbps Русский
Аудио 2: Lame MP3, 48 kHz, stereo, 128 kbps Оригинал (Английский)
Субтитры: Нет-

MediaInfo

[code]General
Complete name : XXXXXXXXX\DC's.Legends.of.Tommorow.S02E01.HDTVRip.XviD.Jaskier.Rus.Eng.avi
Format : AVI
Format/Info : Audio Video Interleave
File size : 390 MiB
Duration : 42mn 26s
Overall bit rate : 1 285 Kbps
Writing application : VirtualDubModRus 1.5.10.2 (build 2540/release)
Writing library : VirtualDubMod build 2540/release
Video
ID : 0
Format : MPEG-4 Visual
Format profile : Advanced Simple@L5
Format settings, BVOP : 1
Format settings, QPel : No
Format settings, GMC : No warppoints
Format settings, Matrix : Default (H.263)
Codec ID : XVID
Codec ID/Hint : XviD
Duration : 42mn 26s
Bit rate : 951 Kbps
Width : 720 pixels
Height : 408 pixels
Display aspect ratio : 16:9
Frame rate : 23.976 (23976/1000) fps
Color space : YUV
Chroma subsampling : 4:2:0
Bit depth : 8 bits
Scan type : Progressive
Compression mode : Lossy
Bits/(Pixel*Frame) : 0.135
Stream size : 289 MiB (74%)
Writing library : XviD 1.2.1 (UTC 2008-12-04)
Audio #1
ID : 1
Format : AC-3
Format/Info : Audio Coding 3
Mode extension : CM (complete main)
Format settings, Endianness : Big
Codec ID : 2000
Duration : 42mn 26s
Bit rate mode : Constant
Bit rate : 192 Kbps
Channel(s) : 2 channels
Channel positions : Front: L R
Sampling rate : 48.0 KHz
Frame rate : 31.250 fps (1536 spf)
Compression mode : Lossy
Stream size : 58.3 MiB (15%)
Alignment : Split accross interleaves
Interleave, duration : 42 ms (1.00 video frame)
Interleave, preload duratio : 500 ms
Audio #2
ID : 2
Format : MPEG Audio
Format version : Version 1
Format profile : Layer 3
Codec ID : 55
Codec ID/Hint : MP3
Duration : 42mn 26s
Bit rate mode : Constant
Bit rate : 128 Kbps
Channel(s) : 2 channels
Sampling rate : 48.0 KHz
Compression mode : Lossy
Stream size : 38.9 MiB (10%)
Alignment : Aligned on interleaves
Interleave, duration : 42 ms (1.00 video frame)
Interleave, preload duratio : 504 ms
Writing library : LAME3.98r
Encoding settings : -m s -V 4 -q 0 -lowpass 17 -b 128

Скриншоты

Внимание! Раздача ведётся путём добавления новых серий.

Внимание! Раздача ведётся путём добавления новых серий; при каждом добавлении создётся новый торрент. Чтобы начать докачку новой серии, пользователям необходимо сделать следующее:
  • Остановить скачивание.
  • Удалить старый торрент у себя из клиента (старые серии удалять не надо).
  • Скачать новый торрент и запустить его у себя в клиенте вместо старого, при этом указать клиенту путь в старую папку куда и должно происходить скачивание новых серий.
    Ваш клиент при этом должен произвести хеширование (проверку) старой папки (если не производит сам - помогите ему сделать это), и будет докачивать только те серии которых у вас ещё нет. Старые серии при этом не удаляются, а продолжают раздаваться!
    Eсли вы уже удалили старые серии, то предотвратить повторную закачку старых серий можно, отжав галочку в соответсвующих местах при запуске нового торрента. По возможности, желательно не удалять старые серии как можно дольше чтобы релизёр не столько продолжал раздавать старые серии, а смог сконцентрироваться на новых.
Вне форума [Профиль] [ЛС]
Похожие темы
Форум Тема Автор Торрент Отв. Посл. сообщение
./templates/default/images/folder_dl.gif Новинки (BD|HDTV|DVD) Легенда о Коловрате (Джаник Файзиев, Иван Шурховецкий) [2017 г., история, боевик, фэнтези, WEB-DL 1080p] iTunes Theseus
1 | 0

0 | 1638

8

2018-01-31 02:23
Theseus Последнее
./templates/default/images/folder_dl.gif Новинки (HD|DVD|BD|WEB|TV|SAT|PDTV|-Rip) Легенда о Коловрате (Джаник Файзиев, Иван Шурховецкий) [2017 г., история, боевик, фэнтези, WEB-DLRip-AVC] iTunes Theseus
1 | 0

0 | 1930

7

2018-01-31 13:44
Theseus Последнее
Показать сообщения:    
Ответить на тему

Текущее время: Сегодня 21:02

Часовой пояс: GMT + 3



Вы не можете начинать темы
Вы не можете отвечать на сообщения
Вы не можете редактировать свои сообщения
Вы не можете удалять свои сообщения
Вы не можете голосовать в опросах
Вы не можете прикреплять файлы к сообщениям
Вы не можете скачивать файлы