Сегодня идет свободное скачивание без начисления Download

Тайны Смолвиля / Smallville / Сезон: 9 / Серии: 1-22 из 22 (Кевин Фэйр / Kevin G. Fair, Мэйзри Алмас / Mairzee Almas) [2009-2010, США, Фантастика, приключения, драма, BDRemux 1080p] MVO (Ю) + DVO (Sony Sci-Fi) + MVO (Smart\'s Studios) + Original

Ответить на тему
 
Автор
Сообщение

Omen ®

Стаж: 5 лет 6 месяцев

Сообщений: 186946

Торрент-статистика

Пост 16-Окт-2016 01:00

[Цитировать]

Тайны Смолвиля / Smallville
Сезон 9. Серии: 1-22 (22).- Год выпуска: 2009-2010
Страна: США
Жанр: Фантастика, приключения, драма
Продолжительность: ~ 00:42:21-Перевод 1: Профессиональный (многоголосый закадровый) [Ю]
Перевод 2: Профессиональный (двухголосый закадровый) [Sony Sci-Fi]
Перевод 3: Любительский (многоголосый закадровый) [Smart's Studios]-Режиссёр: Кевин Фэйр / Kevin G. Fair, Мэйзри Алмас / Mairzee Almas, Майкл Рол / Michael Rohl, Уэйн Роуз / Wayne Rose и др.
В ролях: Том Уэллинг, Эллисон Мэк, Эрика Дюранс, Кэссиди Фриман, Джастин Хартли, Каллум Блу.-Описание: После битвы с Думсдэем прошло около месяца. Кал-Эл начинает обучение в Крепости Одиночества. Ему удается восстановить систему, и он начинает тренировки. Решив изменить свою жизнь, Кларк создает себе «костюм» — чёрную футболку, на груди которой мелом нарисован знак дома Элов, который используется как символ. Теперь везде, где бы Красно-Синее Пятно не геройствовало, остается знак «S». В криминальных кругах Метрополиса обеспокоены новоявленным супергероем, хотя им стало легче после того как Зелёная Стрела и его банда отошли от дел. Внезапно появляется Лоис, не помнящая события последних недель. А в замке Люторов молодой Зод, майор войск Криптона, сталкивается с проблемами в своем отряде.-Доп. информация: Для двух ключевых эпизодов (7-8) доступны комментарии авторов.
- -Качество: BDRemux 1080p
Контейнер: MKV-Видео: VC-1, 1920:1080, 16x9 1.78:1, 23.976 fps, 20.4 Mbps, 0,410 bit/pixel.
Аудио: Русский / Ю, AC-3, 48.0 KHz, 2 ch, 192 Kbps
Аудио 2: Русский / Sony Sci-Fi, AC-3, 48.0 KHz, 2 ch, 192 Kbps
Аудио 3: Русский / Smart's Studios, AC-3, 48.0 KHz, 6 ch, 640 Kbps
Аудио 4: Английский / оригинал BD, AC-3, 48.0 KHz, 6 ch, 640 Kbps
Субтитры: Русские (by Swan), Английские.-

MediaInfo

General
Unique ID : 237292070957453766074214805553407370411 (0xB284CA5E5B331D4C984D15F47548A4AB)
Complete name : D:\Torrent Files\SMALLVILLE.Season-9.BDRemux.1080p.rus.eng\Smallville.s09e01.Savior.rus.eng.BDRemux.mkv
Format : Matroska
Format version : Version 4 / Version 2
File size : 6.50 GiB
Duration : 42mn 14s
Overall bit rate : 22.0 Mbps
Movie name : Smallville Season 09 Episode 01 Savior by dimonych
Encoded date : UTC 2016-10-10 07:49:01
Writing application : mkvmerge v9.4.2 ('So High') 64bit
Writing library : libebml v1.3.4 + libmatroska v1.4.5
Video
ID : 1
Format : VC-1
Format profile : Advanced@L3
Codec ID : V_MS/VFW/FOURCC / WVC1
Codec ID/Hint : Microsoft
Duration : 42mn 13s
Bit rate : 20.4 Mbps
Width : 1 920 pixels
Height : 1 080 pixels
Display aspect ratio : 16:9
Frame rate mode : Constant
Frame rate : 23.976 (24000/1001) fps
Color space : YUV
Chroma subsampling : 4:2:0
Bit depth : 8 bits
Scan type : Progressive
Compression mode : Lossy
Bits/(Pixel*Frame) : 0.410
Stream size : 6.01 GiB (92%)
Title : Smallville S09E01 Savior
Language : English
Default : Yes
Forced : No
Audio #1
ID : 2
Format : AC-3
Format/Info : Audio Coding 3
Mode extension : CM (complete main)
Format settings, Endianness : Big
Codec ID : A_AC3
Duration : 42mn 13s
Bit rate mode : Constant
Bit rate : 640 Kbps
Channel(s) : 6 channels
Channel positions : Front: L C R, Side: L R, LFE
Sampling rate : 48.0 KHz
Frame rate : 31.250 fps (1536 spf)
Compression mode : Lossy
Delay relative to video : 42ms
Stream size : 193 MiB (3%)
Title : Original BD
Language : English
Default : No
Forced : No
Audio #2
ID : 3
Format : AC-3
Format/Info : Audio Coding 3
Mode extension : CM (complete main)
Format settings, Endianness : Big
Codec ID : A_AC3
Duration : 42mn 14s
Bit rate mode : Constant
Bit rate : 192 Kbps
Channel(s) : 2 channels
Channel positions : Front: L R
Sampling rate : 48.0 KHz
Frame rate : 31.250 fps (1536 spf)
Compression mode : Lossy
Stream size : 58.0 MiB (1%)
Title : MVO Ю @ AC3 2.0 192 kbps
Language : Russian
Default : Yes
Forced : No
Audio #3
ID : 4
Format : AC-3
Format/Info : Audio Coding 3
Mode extension : CM (complete main)
Format settings, Endianness : Big
Codec ID : A_AC3
Duration : 42mn 13s
Bit rate mode : Constant
Bit rate : 192 Kbps
Channel(s) : 2 channels
Channel positions : Front: L R
Sampling rate : 48.0 KHz
Frame rate : 31.250 fps (1536 spf)
Compression mode : Lossy
Stream size : 58.0 MiB (1%)
Title : DVO Sony SciFi
Language : Russian
Default : No
Forced : No
Audio #4
ID : 7
Format : AC-3
Format/Info : Audio Coding 3
Mode extension : CM (complete main)
Format settings, Endianness : Big
Codec ID : A_AC3
Duration : 42mn 13s
Bit rate mode : Constant
Bit rate : 640 Kbps
Channel(s) : 6 channels
Channel positions : Front: L C R, Side: L R, LFE
Sampling rate : 48.0 KHz
Frame rate : 31.250 fps (1536 spf)
Compression mode : Lossy
Stream size : 193 MiB (3%)
Title : Smart`s Studios
Language : Russian
Default : No
Forced : No
Text #1
ID : 5
Format : UTF-8
Codec ID : S_TEXT/UTF8
Codec ID/Info : UTF-8 Plain Text
Duration : 41mn 40s
Bit rate : 102 bps
Count of elements : 523
Stream size : 31.2 KiB (0%)
Title : by Swan
Language : Russian
Default : No
Forced : No
Text #2
ID : 6
Format : UTF-8
Codec ID : S_TEXT/UTF8
Codec ID/Info : UTF-8 Plain Text
Duration : 41mn 28s
Bit rate : 60 bps
Count of elements : 521
Stream size : 18.4 KiB (0%)
Title : Original
Language : English
Default : No
Forced : No
-

Скриншоты

-
Вне форума [Профиль] [ЛС]
Похожие темы
Форум Тема Автор Торрент Отв. Посл. сообщение
./templates/default/images/folder_dl.gif Приключения и квесты Secrets of the Dark: The Flower of Shadow Collector\'s Edition / Тайны Тьмы: Цветок Теней. Коллекционное издание [P] [RUS / ENG] (2014) Omen
4 | 0

0 | 1292

17

2015-06-11 12:04
Omen Последнее
Показать сообщения:    
Ответить на тему

Текущее время: Сегодня 00:09

Часовой пояс: GMT + 3



Вы не можете начинать темы
Вы не можете отвечать на сообщения
Вы не можете редактировать свои сообщения
Вы не можете удалять свои сообщения
Вы не можете голосовать в опросах
Вы не можете прикреплять файлы к сообщениям
Вы не можете скачивать файлы