Сегодня идет свободное скачивание без начисления Download

Расследования Мёрдока / Murdoch Mysteries / Сезон: 9 / Серии: 16-18 из 18 (Харви Кросслэнд, Пол Фокс, Элинор Линдо) [2015, Канада, Великобритания, детектив, HDTVRip] VO (Project Web Mania)

Ответить на тему
 
Автор
Сообщение

Omen ®

Стаж: 5 лет 11 месяцев

Сообщений: 184329

Торрент-статистика

Пост 15-Окт-2016 01:00

[Цитировать]

Расследования Мёрдока / Murdoch Mysteries
Год выпуска: 2015
Страна: Канада, Великобритания
Жанр: детектив
Продолжительность: ~45 мин
Перевод: Любительский (одноголосый закадровый) Project_Web_Mania
Режиссёр: Харви Кросслэнд, Пол Фокс, Элинор Линдо
В ролях: Янник Биссон, Томас Крэйг, Джонни Харрис, Хелен Джо, Лаклан Мёрдок, Джорджина Рейли, Джонатан Уоттон, Арвен Хампрейс, Найджел Беннетт, Питер Стеббингс
Описание: Начало 20 века. На улицах Торонто происходят странные убийства. Детектив Уильям Мердок раскрывает их с помощью новой науки — криминалистики. У него есть союзник — судебный врач Джулия Огден. Ни юный возраст, ни хорошее воспитание, ни пышные юбки не мешают ей вскрывать трупы и проводить экспертизы.
Сэмпл: http://multi-up.com/1122776
Качество: HDTVRip
Формат: MP4
Видео: MPEG-4, 1280x720, 16:9, 24 fps, 1980 Кбит/с
Аудио: AAC, 192 Kbps, 44.0 KHz, 2 channels
Субтитры: отсутствуют

MediaInfo

Формат : MPEG-4
Профиль формата : Base Media
Идентификатор кодека : isom (isom/iso2/avc1/mp41)
Размер файла : 673 Мбайт
Продолжительность : 44 м.
Режим общего битрейта : Переменный
Общий поток : 2137 Кбит/сек
Программа кодирования : Lavf56.25.101
Видео
Идентификатор : 1
Формат : AVC
Формат/Информация : Advanced Video Codec
Профиль формата : High@L3.1
Параметр CABAC формата : Да
Параметр ReFrames формата : 4 кадра
Идентификатор кодека : avc1
Идентификатор кодека/Информация : Advanced Video Coding
Продолжительность : 44 м.
Битрейт : 1980 Кбит/сек
Ширина : 1280 пикселей
Высота : 720 пикселей
Соотношение сторон : 16:9
Режим частоты кадров : Постоянный
Частота кадров : 23,976 (24000/1001) кадра/сек
Цветовое пространство : YUV
Субдискретизация насыщенности : 4:2:0
Битовая глубина : 8 бит
Тип развёртки : Прогрессивная
Бит/(Пиксели*Кадры) : 0.090
Размер потока : 623 Мбайт (93%)
Библиотека кодирования : x264 core 142
Настройки программы : cabac=1 / ref=3 / deblock=1:0:0 / analyse=0x3:0x113 / me=hex / subme=7 / psy=1 / psy_rd=1.00:0.00 / mixed_ref=1 / me_range=16 / chroma_me=1 / trellis=1 / 8x8dct=1 / cqm=0 / deadzone=21,11 / fast_pskip=1 / chroma_qp_offset=-2 / threads=6 / lookahead_threads=1 / sliced_threads=0 / nr=0 / decimate=1 / interlaced=0 / bluray_compat=0 / constrained_intra=0 / bframes=3 / b_pyramid=2 / b_adapt=1 / b_bias=0 / direct=1 / weightb=1 / open_gop=0 / weightp=2 / keyint=24 / keyint_min=2 / scenecut=40 / intra_refresh=0 / rc_lookahead=24 / rc=2pass / mbtree=1 / bitrate=1980 / ratetol=1.0 / qcomp=0.60 / qpmin=0 / qpmax=69 / qpstep=4 / cplxblur=20.0 / qblur=0.5 / ip_ratio=1.40 / aq=1:1.00
Аудио
Идентификатор : 2
Формат : AAC
Формат/Информация : Advanced Audio Codec
Профиль формата : LC
Идентификатор кодека : 40
Продолжительность : 44 м.
Duration_LastFrame : -4 мс.
Вид битрейта : Переменный
Битрейт : 152 Кбит/сек
Максимальный битрейт : 192 Кбит/сек
Каналы : 2 канала
Расположение каналов : Front: L R
Частота : 44,1 КГц
Частота кадров : 43,066 кадра/сек (1024 spf)
Метод сжатия : С потерями
Размер потока : 47,8 Мбайт (7%)
Default : Да
Alternate group : 1

Скриншоты

Вне форума [Профиль] [ЛС]
Похожие темы
Форум Тема Автор Торрент Отв. Посл. сообщение
./templates/default/images/folder_dl.gif Обучающее видео Специалист | СЕН3 (CHFI) Расследование хакерских инцидентов (2016) PCRec Omen
2 | 0

0 | 966

35

2016-10-27 01:01
Omen Последнее
Показать сообщения:    
Ответить на тему

Текущее время: Сегодня 02:06

Часовой пояс: GMT + 3



Вы не можете начинать темы
Вы не можете отвечать на сообщения
Вы не можете редактировать свои сообщения
Вы не можете удалять свои сообщения
Вы не можете голосовать в опросах
Вы не можете прикреплять файлы к сообщениям
Вы не можете скачивать файлы