Сегодня идет свободное скачивание без начисления Download

Обитель лжи / House of Lies / Сезон: 3 / Серии: 1-12 из 12 (Стивен Хопкинс / Stephen Hopkins) [2014, США, драма, комедия, HDTVRip 720p] MVO (Novamedia) + Original

Ответить на тему
 
Автор
Сообщение

Omen ®

Стаж: 5 лет 9 месяцев

Сообщений: 184433

Торрент-статистика

Пост 15-Окт-2016 01:00

[Цитировать]

Обитель лжи / House of Lies
Год выпуска: 2014
Страна: США
Жанр: драма, комедия
Продолжительность: ~30 мин.
Перевод: Профессиональный (многоголосый закадровый) Novamedia
Режиссёр: Стивен Хопкинс / Stephen Hopkins
В ролях: Дон Чидл, Кристен Белл, Джош Лоусон, Доун Оливьери, Бен Швартц, Глинн Турман и др
Описание: Необычный и язвительный взгляд на очень успешного и беспощадного консультанта по вопросам управления Марти, который не брезгует никакими средствами, чтобы получить нужную для его клиентов информацию.
Сэмпл: http://sendfile.su/1274222

Качество: HDTVRip 720p
Контейнер: MKV
Видео: V_MPEG4/ISO/AVC, 1280x720, 16:9, 23.976 fps, ~6 486 Kbps avg
Аудио: Русский / Novamedia, AC-3, 48 kHz, 6 ch, ~384 kbps avg
Аудио 2: English / Original, AC-3, 48 kHz, 6 ch, ~384 kbps avg
Субтитры: Русские, английские

Список серий

1. Крушение / Wreckage
2. Бессилие / Power(less)
3. Взрыв / Boom
4. Партнеры / Associates
5. Солдаты / Soldiers
6. Миттельшпиль / Middlegame
7. Отпор / Pushback
8. На грани / Brinkmanship
9. Чжан / Zhang
10. Возмездие / Comeuppance
11. Сообща / Together
12. Джошуа / Joshua

MediaInfo

Format : Matroska
Format version : Version 4 / Version 2
File size : 1.42 GiB
Duration : 27 min
Overall bit rate : 7 401 kb/s
Movie name : House.of.Lies.S03E01.720p.HDTV.DD5.1.x264-CasStudio
Encoded date : UTC 2014-01-17 19:02:10
Writing application : mkvmerge v6.7.0 ('Back to the Ground') 32bit built on Jan 8 2014 15:03:17
Writing library : libebml v1.3.0 + libmatroska v1.4.1
Cover : Yes
Attachments : Cover
Video
ID : 1
Format : AVC
Format/Info : Advanced Video Codec
Format profile : High@L4.1
Format settings, CABAC : Yes
Format settings, ReFrames : 9 frames
Codec ID : V_MPEG4/ISO/AVC
Duration : 27 min
Bit rate : 6 486 kb/s
Width : 1 280 pixels
Height : 720 pixels
Display aspect ratio : 16:9
Frame rate mode : Constant
Frame rate : 23.976 (24000/1001) FPS
Color space : YUV
Chroma subsampling : 4:2:0
Bit depth : 8 bits
Scan type : Progressive
Bits/(Pixel*Frame) : 0.294
Stream size : 1.24 GiB (88%)
Writing library : x264 core 140 r2377 1ca7bb9
Encoding settings : cabac=1 / ref=9 / deblock=1:-2:-2 / analyse=0x3:0x113 / me=umh / subme=10 / psy=1 / psy_rd=1.05:0.10 / mixed_ref=1 / me_range=48 / chroma_me=1 / trellis=2 / 8x8dct=1 / cqm=0 / deadzone=21,11 / fast_pskip=0 / chroma_qp_offset=-3 / threads=6 / lookahead_threads=1 / sliced_threads=0 / nr=0 / decimate=0 / interlaced=0 / bluray_compat=0 / constrained_intra=0 / bframes=7 / b_pyramid=2 / b_adapt=2 / b_bias=0 / direct=3 / weightb=1 / open_gop=0 / weightp=2 / keyint=240 / keyint_min=22 / scenecut=40 / intra_refresh=0 / rc_lookahead=175 / rc=crf / mbtree=1 / crf=16.0 / qcomp=0.75 / qpmin=0 / qpmax=66 / qpstep=10 / vbv_maxrate=50000 / vbv_bufsize=62500 / crf_max=0.0 / nal_hrd=none / filler=0 / ip_ratio=1.40 / aq=1:0.70
Language : English
Default : Yes
Forced : No
Audio #1
ID : 2
Format : AC-3
Format/Info : Audio Coding 3
Mode extension : CM (complete main)
Format settings, Endianness : Big
Codec ID : A_AC3
Duration : 27 min
Bit rate mode : Constant
Bit rate : 384 kb/s
Channel(s) : 6 channels
Channel positions : Front: L C R, Side: L R, LFE
Sampling rate : 48.0 kHz
Frame rate : 31.250 FPS (1536 spf)
Compression mode : Lossy
Stream size : 75.5 MiB (5%)
Language : Russian
Default : Yes
Forced : No
Audio #2
ID : 3
Format : AC-3
Format/Info : Audio Coding 3
Mode extension : CM (complete main)
Format settings, Endianness : Big
Codec ID : A_AC3
Duration : 27 min
Bit rate mode : Constant
Bit rate : 384 kb/s
Channel(s) : 6 channels
Channel positions : Front: L C R, Side: L R, LFE
Sampling rate : 48.0 kHz
Frame rate : 31.250 FPS (1536 spf)
Compression mode : Lossy
Stream size : 75.5 MiB (5%)
Language : English
Default : No
Forced : No
Text #1
ID : 4
Format : UTF-8
Codec ID : S_TEXT/UTF8
Codec ID/Info : UTF-8 Plain Text
Language : Russian
Default : No
Forced : No
Text #2
ID : 5
Format : UTF-8
Codec ID : S_TEXT/UTF8
Codec ID/Info : UTF-8 Plain Text
Language : English
Default : No
Forced : No

Скриншоты

Вне форума [Профиль] [ЛС]
Показать сообщения:    
Ответить на тему

Текущее время: Сегодня 16:40

Часовой пояс: GMT + 3



Вы не можете начинать темы
Вы не можете отвечать на сообщения
Вы не можете редактировать свои сообщения
Вы не можете удалять свои сообщения
Вы не можете голосовать в опросах
Вы не можете прикреплять файлы к сообщениям
Вы не можете скачивать файлы