Сегодня идет свободное скачивание без начисления Download

Секретные материалы / The X-Files / Сезон: 8 / Серии: 1-5 из 21 (Крис Картер, Дэрин Морган, Глен Морган) [2000-2001, Мистика, фантастика, детектив, триллер, DVB 576i] DUB (ТВ3)

Ответить на тему
 
Автор
Сообщение

Omen ®

Стаж: 6 лет 1 месяц

Сообщений: 184308

Торрент-статистика

Пост 15-Окт-2016 01:00

[Цитировать]

Секретные материалы / The X-Files / Сезон 8 Год выпуска: 2000-2001
Страна: США
Жанр: Мистика, фантастика, детектив, триллер
Продолжительность: 4 x ~00:42:00
Субтитры: Отсутствуют
Перевод: Полное дублирование ТВ3 (в том числе русифицированы надписи на видео)
Русские субтитры: нет
Режиссёр: Крис Картер, Дэрин Морган, Глен Морган
В ролях:
Дэвид Духовны / David Duchovny
Джиллиан Андерсон / Gillian Anderson
Митч Пилегги / Mitch Pileggi
Уильям Дэвис / William B. Davis
Николас Ли / Nicholas Lea
Стивен Уильямс / Steven Williams-Описание: Специальный агент Дана Скалли назначена напарником специального агента Фокса Малдера, чью сестру, как он сам считает, в детстве похитили инопланетяне, для оценки его работы над проектом Секретные материалы. В попытках доказать существование внеземных цивилизаций и использование военными технологий пришельцев агенты вступают в противоборство с тайной силой в правительстве, которая всеми способами стремится помешать им. Но с помощью тайного информатора агентам удается разгадывать все новые и новые загадки.-Сэмпл-Качество: DVB-AVC
Формат: TS
Видео кодек: H.264
Аудио кодек: MP2
Видео: MPEG4 Video (H264) 720x576 (4:3) 25fps 2726kbps 0.263bit/pixel
Аудио: MPEG Audio 48000Hz 2ch 192kbps

MediaInfo

GeneralID : 1 (0x1)Complete name : W:\раздачи\x-files.s08.dvb\s08e01.Within.tsFormat : MPEG-TSFile size : 919 MiBDuration : 41mn 49sOverall bit rate mode : VariableOverall bit rate : 3 071 Kbps
VideoID : 2051 (0x803)Menu ID : 2050 (0x802)Format : AVCFormat/Info : Advanced Video CodecFormat profile : Main@L3Format settings, CABAC : YesFormat settings, ReFrames : 3 framesFormat settings, GOP : M=4, N=28Codec ID : 27Duration : 41mn 48sBit rate : 2 726 KbpsWidth : 720 pixelsHeight : 576 pixelsDisplay aspect ratio : 4:3Frame rate : 25.000 fpsStandard : ComponentColor space : YUVChroma subsampling : 4:2:0Bit depth : 8 bitsScan type : InterlacedScan type, store method : Separated fieldsScan order : Top Field FirstBits/(Pixel*Frame) : 0.263Stream size : 815 MiB (89%)Color range : LimitedColor primaries : BT.601 PALTransfer characteristics : BT.470 System B, BT.470 System GMatrix coefficients : BT.601
AudioID : 2052 (0x804)Menu ID : 2050 (0x802)Format : MPEG AudioFormat version : Version 1Format profile : Layer 2Codec ID : 3Duration : 41mn 49sBit rate mode : ConstantBit rate : 192 KbpsChannel(s) : 2 channelsSampling rate : 48.0 KHzCompression mode : LossyDelay relative to video : -80msStream size : 57.4 MiB (6%)Language : English

Скриншоты

Список серий

08x01 - «Внутри» ("Within")
Новый заместитель директора Керш в обход Скиннера подключает к поиску Малдера своих людей и назначает Джона Доггетта главой команды поиска. Скалли и сам Скиннер отодвигаются на второй план. Керш считает их всего лишь свидетелями, не позволяя вести полноценное расследование.-08x02 - «Снаружи» ("Without")
Скалли рассказывает агенту Доггетту правду об инопланетном охотнике за головами, но тот не верит ей, продолжая прочесывать местность вблизи школы. Тем временем Керш назначает Доггетта в отдел секретных материалов на место Малдера.-08x03 - «Терпение» ("Patience")
В Айдахо совершено жестокое двойное убийство: в результате многочисленных рваных ран погибла пожилая чета владельцев похоронного бюро. Это первое совместное дело Скалли и Доггета, в ходе которого новый сотрудник понимает, что его методы отличаются от способа ведения расследования Скалли.-08x04 - «Кукушата» ("Roadrunners")
Скалли отправляется в отдаленный район штата Юты, чтобы помочь местному коронеру разобраться с телом молодого мужчины, который стал жертвой непонятного убийства в пустынной степи. Она оказывается в маленьком поселке, в котором нет ни бензоколонки, ни телефона, к тому же тут у нее появляется странный пациент.-
[url=tracker.php?nm=The%20X%20Files%20DVB]Другие сезоны сериала в этом качестве[/url]
Вне форума [Профиль] [ЛС]
Похожие темы
Форум Тема Автор Торрент Отв. Посл. сообщение
./templates/default/images/folder_dl.gif Обучающее видео Алекс Мэй - Куннилингус. Секреты мастерства [2012] CamRip Omen
1 | 0

0 | 1927

177

2015-05-07 00:18
Omen Последнее
./templates/default/images/folder_dl.gif Обучающее видео LendWings | Все секреты SQL. SQL Injection Master Course (2014) PCRec [H.264] Omen
1 | 0

0 | 988

31

2015-06-17 21:26
Omen Последнее
./templates/default/images/folder_dl.gif Обучающее видео Алекс Мэй | Секреты мужских мультиоргазмов (2017) HDRip [H.264/1080p-LQ] Omen
1 | 0

0 | 1121

46

2016-03-09 03:57
Omen Последнее
./templates/default/images/folder_dl.gif Обучающее видео Сергей Патин | Секреты создания шикарных фотокниг 2.0 (2016) [unpacked] XP1971
1 | 0

0 | 3888

16

2017-06-15 15:26
XP1971 Последнее
./templates/default/images/folder_dl.gif Ролики, сайт рипы Будни русской секретарши в Лондоне (28 роликов) ( PornHub) [2017 г., Amateur, All Sex, Blowjob, Anal Blonde, Russian, WEB-DL, 720p] (Yasmi butt) XP1971
1 | 0

0 | 14685

36

2017-11-02 10:12
XP1971 Последнее
./templates/default/images/folder_dl.gif Психология, Тренинг, Саморазвитие Антон Могучий | Развитие интеллекта, внимания, памяти. Секретные методы спецслужб (2018) [PDF] }{@R0N
1 | 0

0 | 595

3

2018-08-09 16:15
}{@R0N Последнее
Показать сообщения:    
Ответить на тему

Текущее время: Сегодня 20:13

Часовой пояс: GMT + 3



Вы не можете начинать темы
Вы не можете отвечать на сообщения
Вы не можете редактировать свои сообщения
Вы не можете удалять свои сообщения
Вы не можете голосовать в опросах
Вы не можете прикреплять файлы к сообщениям
Вы не можете скачивать файлы