Сегодня идет свободное скачивание без начисления Download

Радиоволна / Frequency / Сезон: 1 / Серии: 1-2 из 10 (Брэд Андерсон, Джон Т. Кречмер) [2016, Полицейская драма, детектив, научная фантастика, WEB-DLRip] DVO (ColdFilm) + Original

Ответить на тему
 
Автор
Сообщение

Omen ®

Стаж: 5 лет 7 месяцев

Сообщений: 185412

Торрент-статистика

Пост 14-Окт-2016 01:00

[Цитировать]

РадиоволнаFrequency- Год выпуска: 2016
Страна: США
Жанр: Полицейская драма, детектив, научная фантастика
Продолжительность: ~ 00:43:00-Перевод: Любительский (двухголосый закадровый) ColdFilm
Режиссёр: Брэд Андерсон, Джон Т. Кречмер
В ролях: Пейтон Лист. Дэниэл Бонжур. Ленни Джейкобсон. Девин Келли. Мехи Файфер. Райли Смит. Гаретт Баллок. Винсент Дэнгерфилд. Татьяна Форрест. Эмми О`Лири. Шон О. Робертс. Энтони Руйвивар. Дженнифер Спенс. Бритни Уолдрон. Бен Уилкинсон. Джулия Бенсон. Джим Элиасон-Описание: Главная героиня мистического триллера «Frequency» - женщина-детектив. Трудностей и заморочек ей хватает и по работе. Но её жизнь ещё больше осложняется и запутывается, когда она обнаруживает, что может общаться с отцом посредством обычного радио. Вот только он умер ещё в 1996-м году, а сейчас на дворе 2016-й. Они вступают в новые необычные отношения и начинают совместно работать над расследованием нераскрытого убийства. Связь с прошлым не проходит без последствий – «эффект бабочки» начинает вносить хаос в современность.-Доп. информация: Без рекламных ВидеоАудио вставок-Сэмпл-Качество: WEB-DLRip
Формат: AVI
Видео: XviD, 720x400 (16:9), 23,976 fps, ~1500 kbps
Аудио: Rus. MP3, 48 kHz, 2 ch, 128 kbps
Аудио: Eng. MP3, 48 kHz, 2 ch, 128 kbps
Субтитры: отсутствуют

Список серий

01. Pilot

MediaInfo

Код:
Полное имя                               : Frequency.S01.WEB-DLRip.RusEng.ColdFilm\
Frequency.S01E01.WEB-DLRip.RusEng.ColdFilm.L.avi
Формат                                   : AVI
Формат/Информация                        : Audio Video Interleave
Размер файла                             : 550 Мбайт
Продолжительность                        : 42 м.
Общий поток                              : 1812 Кбит/сек
Программа кодирования                    : VirtualDubMod 1.5.10.3 (build 2550/release)
Библиотека кодирования                   : VirtualDubMod build 2550/release
Видео
Идентификатор                            : 0
Формат                                   : MPEG-4 Visual
Профиль формата                          : Advanced Simple@L5
Параметр BVOP формата                    : 1
Параметр QPel формата                    : Нет
Параметр GMC формата                     : Без точки перехода
Параметр матрицы формата                 : Default (H.263)
Идентификатор кодека                     : XVID
Идентификатор кодека/Подсказка           : XviD
Продолжительность                        : 42 м.
Битрейт                                  : 1542 Кбит/сек
Ширина                                   : 720 пикселей
Высота                                   : 400 пикселей
Соотношение сторон                       : 16:9
Частота кадров                           : 23,976 кадра/сек
Цветовое пространство                    : YUV
Субдискретизация насыщенности            : 4:2:0
Битовая глубина                          : 8 бит
Тип развёртки                            : Прогрессивная
Метод сжатия                             : С потерями
Бит/(Пиксели*Кадры)                      : 0.223
Размер потока                            : 468 Мбайт (85%)
Библиотека кодирования                   : XviD 1.2.1 (UTC 2008-12-04)
Аудио #1
Идентификатор                            : 1
Формат                                   : MPEG Audio
Версия формата                           : Version 1
Профиль формата                          : Layer 3
Режим                                    : Joint stereo
Расширение режима                        : MS Stereo
Идентификатор кодека                     : 55
Идентификатор кодека/Подсказка           : MP3
Продолжительность                        : 42 м.
Вид битрейта                             : Постоянный
Битрейт                                  : 128 Кбит/сек
Каналы                                   : 2 канала
Частота                                  : 48,0 КГц
Метод сжатия                             : С потерями
Размер потока                            : 38,9 Мбайт (7%)
Выравнивание                             : Соединение по промежуткам
Продолжительность промежутка             : 42  мс. (1,00 видеокадр)
Время предзагрузки промежутка            : 504  мс.
Аудио #2
Идентификатор                            : 2
Формат                                   : MPEG Audio
Версия формата                           : Version 1
Профиль формата                          : Layer 3
Режим                                    : Joint stereo
Расширение режима                        : MS Stereo
Идентификатор кодека                     : 55
Идентификатор кодека/Подсказка           : MP3
Продолжительность                        : 42 м.
Вид битрейта                             : Постоянный
Битрейт                                  : 128 Кбит/сек
Каналы                                   : 2 канала
Частота                                  : 48,0 КГц
Метод сжатия                             : С потерями
Размер потока                            : 38,9 Мбайт (7%)
Выравнивание                             : Соединение по промежуткам
Продолжительность промежутка             : 42  мс. (1,00 видеокадр)
Время предзагрузки промежутка            : 504  мс.

Скриншоты

Внимание! Раздача ведётся путём добавления новых серий

Внимание! Раздача ведётся путём добавления новых серий; при каждом добавлении создаётся новый торрент. Чтобы начать докачку новой серии, пользователям необходимо сделать следующее:
(1) остановить скачивание,
(2) удалить старый торрент у себя из клиента (старые серии удалять не надо),
(3) скачать новый торрент и запустить его у себя в клиенте вместо старого, при этом указать клиенту путь в старую папку куда и должно происходить скачивание новых серий.
Ваш клиент при этом должен произвести хеширование (проверку) старой папки (если не производит сам - помогите ему сделать это), и будет докачивать только те серии которых у вас ещё нет. Старые серии при этом не удаляются, а продолжают раздаваться!
Eсли вы уже удалили старые серии, то предотвратить повторную закачку старых серий можно, отжав галочку в соответствующих местах при запуске нового торрента. По возможности, желательно не удалять старые серии как можно дольше чтобы релизёр не столько продолжал раздавать старые серии, а смог сконцентрироваться на новых.
Вне форума [Профиль] [ЛС]
Похожие темы
Форум Тема Автор Торрент Отв. Посл. сообщение
./templates/default/images/folder_dl.gif Современная проза, классика, поэзия Радио России | Театр у микрофона выпуск №13 [2006] [MP3] UndegraundMen
1 | 0

0 | 328

0

2013-04-12 00:03
UndegraundMen Последнее
./templates/default/images/folder_dl.gif Современная проза, классика, поэзия Радио России | Театр у микрофона выпуск №12 [2006] [MP3] UndegraundMen
1 | 0

0 | 341

0

2013-04-12 00:03
UndegraundMen Последнее
./templates/default/images/folder_dl.gif Современная проза, классика, поэзия Радио России | Театр у микрофона выпуск №19 [2006] [MP3] UndegraundMen
1 | 0

0 | 294

0

2013-04-16 00:00
UndegraundMen Последнее
./templates/default/images/folder_dl.gif Современная проза, классика, поэзия Радио России | Театр у микрофона выпуск №16 [2006] [MP3] UndegraundMen
1 | 0

0 | 348

0

2013-04-16 00:00
UndegraundMen Последнее
./templates/default/images/folder_dl.gif Современная проза, классика, поэзия Радио России | Театр у микрофона выпуск №21 [2006] [MP3] UndegraundMen
1 | 0

0 | 296

0

2013-04-16 00:00
UndegraundMen Последнее
./templates/default/images/folder_dl.gif Современная проза, классика, поэзия Радио России | Театр у микрофона выпуск №20 [2006] [MP3] UndegraundMen
1 | 0

0 | 284

1

2013-04-16 00:00
UndegraundMen Последнее
./templates/default/images/folder_dl.gif Современная проза, классика, поэзия Радио России | Театр у микрофона выпуск №26 [2006] [MP3] UndegraundMen
1 | 0

0 | 320

0

2013-04-19 00:00
UndegraundMen Последнее
./templates/default/images/folder_dl.gif Современная проза, классика, поэзия Радио России | Театр у микрофона выпуск №25 [2006] [MP3] UndegraundMen
1 | 0

0 | 280

0

2013-04-19 00:00
UndegraundMen Последнее
./templates/default/images/folder_dl.gif Современная проза, классика, поэзия Радио России | Театр у микрофона выпуск №24 [2006] [MP3] UndegraundMen
1 | 0

0 | 345

0

2013-04-19 00:00
UndegraundMen Последнее
./templates/default/images/folder_dl.gif Современная проза, классика, поэзия Радио России | Театр у микрофона выпуск №28 [2006] [MP3] UndegraundMen
1 | 0

0 | 291

0

2013-04-20 00:03
UndegraundMen Последнее
Показать сообщения:    
Ответить на тему

Текущее время: Сегодня 19:33

Часовой пояс: GMT + 3



Вы не можете начинать темы
Вы не можете отвечать на сообщения
Вы не можете редактировать свои сообщения
Вы не можете удалять свои сообщения
Вы не можете голосовать в опросах
Вы не можете прикреплять файлы к сообщениям
Вы не можете скачивать файлы