Сегодня идет свободное скачивание без начисления Download

Флэш / The Flash / Сезон: 3 / Серии: 1-2 из 20 (Дэвид Наттер) [2016, США, Фантастика, боевик, драма, приключения, WEB-DL 1080p] MVO (LostFilm) + Original + Eng Subs

Ответить на тему
 
Автор
Сообщение

Omen ®

Стаж: 5 лет 9 месяцев

Сообщений: 184393

Торрент-статистика

Пост 14-Окт-2016 01:00

[Цитировать]

Флэш / The Flash
Год выпуска: 2016
Страна: США
Жанр: Фантастика, боевик, драма, приключения
Продолжительность: ~ 00:42:00
Перевод: Профессиональный (многоголосый закадровый) LostFilm
Режиссёр: Дэвид Наттер
Описание: из-за несчастного случая судмедэксперт Барри Аллен приобретает способность передвигаться с невероятной скоростью. Этот случай делает из него супергероя, которым он всегда мечтал стать. Защищая город, как ангел-хранитель, делая невозможное, спасая жизни со скоростью вспышки, по подсказке Оливера Куина (Стрела), он берёт себе и соответствующее имя - Флэш

Качество: WEB-DL 1080p
Контейнер: MKV
Видео: H.264/AVC, 1916x1074 (16:9), ~5164 kbps
Аудио: AC3, 2 ch, 384 Кбит/с [Rus]
Аудио 2: AC3, 6 ch, 384 Кбит/с [Eng]
Субтитры: Английские

Список серий

01. Flashpoint / Флэшпойнт

MediaInfo

Общее
Уникальный идентификатор : 230315746802591108866026346770001614972 (0xAD453308264756ABBDD3072795B4D87C)
Полное имя : D:\Загрузки\Флэш (сезон 3) The Flash (2016) WEB-DL 1080p - LostFilm\The.Flash.S03E01.WEB-DL1080p.Rus.Eng.DV.LostFilm.mkv
Формат : Matroska
Версия формата : Version 4 / Version 2
Размер файла : 1,76 Гбайт
Продолжительность : 42 м.
Общий поток : 5935 Кбит/сек
Название фильма : The.Flash.S03E01.WEB-DL1080p.Rus.Eng.DV.LostFilm
Дата кодирования : UTC 2016-10-06 17:51:19
Программа кодирования : mkvmerge v8.2.0 ('World of Adventure') 64bit
Библиотека кодирования : libebml v1.3.1 + libmatroska v1.4.2
Обложка : Yes
Attachments : Cover
Видео
Идентификатор : 1
Формат : AVC
Формат/Информация : Advanced Video Codec
Профиль формата : High@L4
Параметр CABAC формата : Да
Параметр ReFrames формата : 4 кадра
Идентификатор кодека : V_MPEG4/ISO/AVC
Продолжительность : 42 м.
Битрейт : 5164 Кбит/сек
Ширина : 1916 пикселей
Высота : 1074 пикселя
Соотношение сторон : 16:9
Режим частоты кадров : Постоянный
Частота кадров : 23,976 (23976/1000) кадра/сек
Цветовое пространство : YUV
Субдискретизация насыщенности : 4:2:0
Битовая глубина : 8 бит
Тип развёртки : Прогрессивная
Бит/(Пиксели*Кадры) : 0.105
Размер потока : 1,53 Гбайт (87%)
Язык : English
Default : Да
Forced : Нет
Цветовой диапазон : Limited
Основные цвета : BT.709
Характеристики трансфера : BT.709
Коэффициенты матрицы : BT.709
Аудио #1
Идентификатор : 2
Формат : AC-3
Формат/Информация : Audio Coding 3
Расширение режима : CM (complete main)
Параметр Endianness формата : Big
Идентификатор кодека : A_AC3
Продолжительность : 42 м.
Вид битрейта : Постоянный
Битрейт : 384 Кбит/сек
Каналы : 2 канала
Расположение каналов : Front: L R
Частота : 48,0 КГц
Частота кадров : 31,250 кадров/сек (1536 spf)
Метод сжатия : С потерями
Размер потока : 116 Мбайт (6%)
Заголовок : LostFilm
Язык : Russian
Default : Да
Forced : Нет
Аудио #2
Идентификатор : 3
Формат : AC-3
Формат/Информация : Audio Coding 3
Расширение режима : CM (complete main)
Параметр Endianness формата : Big
Идентификатор кодека : A_AC3
Продолжительность : 42 м.
Вид битрейта : Постоянный
Битрейт : 384 Кбит/сек
Каналы : 6 каналов
Расположение каналов : Front: L C R, Side: L R, LFE
Частота : 48,0 КГц
Частота кадров : 31,250 кадров/сек (1536 spf)
Метод сжатия : С потерями
Размер потока : 116 Мбайт (6%)
Язык : English
Default : Нет
Forced : Нет
Текст
Идентификатор : 4
Формат : UTF-8
Идентификатор кодека : S_TEXT/UTF8
Идентификатор кодека/Информация : UTF-8 Plain Text
Продолжительность : 41 м.
Битрейт : 86 бит/сек
Count of elements : 976
Размер потока : 26,5 Кбайт (0%)
Язык : English
Default : Нет
Forced : Нет

Скриншоты

Вне форума [Профиль] [ЛС]
Показать сообщения:    
Ответить на тему

Текущее время: Сегодня 04:36

Часовой пояс: GMT + 3



Вы не можете начинать темы
Вы не можете отвечать на сообщения
Вы не можете редактировать свои сообщения
Вы не можете удалять свои сообщения
Вы не можете голосовать в опросах
Вы не можете прикреплять файлы к сообщениям
Вы не можете скачивать файлы