Сегодня идет свободное скачивание без начисления Download

Падающая вода (Потоки) / Falling Water / Сезон: 1 / Серии: 1 из 8 (Джек Бендер, Гай Ферленд, Хуан Карлос Фреснадильо) [2016, фантастика, триллер, драма, детектив, 1080p WEB-DL] + MVO (Newstudio, BaibaKo) + Original + Subs (Eng)

Ответить на тему
 
Автор
Сообщение

Omen ®

Стаж: 5 лет 11 месяцев

Сообщений: 184329

Торрент-статистика

Пост 13-Окт-2016 01:01

[Цитировать]

-Падающая вода (Потоки) / Falling Water-- Год выпуска: 2016
Страна: США | USA
Жанр: фантастика, триллер, драма, детектив
Продолжительность: ~00:56:00-Перевод#1: Профессиональный (многоголосый закадровый) | Newstudio
Перевод#2: Профессиональный (многоголосый закадровый) | BaibaKo
Cубтитры: есть-Режиссер: Джек Бендер, Гай Ферленд, Хуан Карлос Фреснадильо-В ролях: Дэвид Аджала, Лиззи Брошере, Уилл Юн Ли, Анна Вуд, Francesca Faridany, Труди Стайлер, Бен Ван Берген, Джои Озенн, Шайло Фернандес, Пуйа Мохсени-Описание: Сериал американского телеканала USA Network «Падающая вода» (альтернативное название – «Поток сознания») Эта галлюциногенная драма - история трёх, не связанных между собой людей, которые постепенно осознают, что во сне видят отдельные части общего сновидения. Перед каждым стоит таинственный и очень личный квест. Один ищет свою пропавшую подругу, второй – потерявшегося ребёнка, третий – лекарство от кататонии для матери. И лишь в общем сновидении можно отыскать ключик к каждой из этих загадок. Чем глубже они копают, тем более убеждаются: в общем сне есть не только разрешение их личных проблем, в нём – ключ к судьбе мира.-«Чем ценнее сведение, тем опаснее оно»-IMDB: 7.784/10 (0,173 голосов)
КиноПоиск: 7.625/10 (0,158 голосов)
-РЕЛИЗ от sergiy_psp
Примечание писал(а):
Добавлено озвучивание от Newstudio, BaibaKo. Начало сезона!
Всем приятного просмотра! Работа со звуком: sergiy_psp, karta. НЕТ РЕКЛАМЫ!-Источник: iTunes WEB-DL
Качество видео: WEB-DL 1080p
Формат: MKV
Кодек: H.264 @ AC3
Видео: 1920x1080 at 23.976 fps, MPEG-4 AVC, ~5032 kbps avg, 0.101 bit/pixel
Аудио Rus: 48 kHz, AC3, 3/2 (L,C,R,l,r) + LFE ch, ~384.00 kbps avg |Многоголосый закадровый, Newstudio|
Аудио Rus: 48 kHz, AC3, 3/2 (L,C,R,l,r) + LFE ch, ~384.00 kbps avg |Многоголосый закадровый, BaibaKo|
Аудио Eng: 48 kHz, AC3, 3/2 (L,C,R,l,r) + LFE ch, ~384.00 kbps avg
Cубтитры: English
«Семпл»-

✘ Список серий ✘

Код:
01. - 13.10.2016 - Не говори с Билом / Don't Tell Bill
02. - 20.10.2016 - Третий невидящий глас / Three Half-Blind Mice
03. - 27.10.2016 - Монстры, обычные люди / Monsters, Most Familiar
04. - 03.11.2016 - Эпизод #2.4 / Episode # 2.4
05. - 10.11.2016 - Эпизод #2.5 / Episode # 2.5
06. - 17.10.2016 - Эпизод #2.6 / Episode # 2.6
07. - 24.11.2016 - Эпизод #2.7 / Episode # 2.7
08. - 01.12.2016 - Эпизод #2.8 / Episode # 2.8
-

✘ MediaInfo ✘

Код:
Видео
Идентификатор                            : 1
Формат                                   : AVC
Формат/Информация                        : Advanced Video Codec
Профиль формата                          : High@L4.0
Параметр CABAC формата                   : Да
Параметр ReFrames формата                : 4 кадра
Идентификатор кодека                     : V_MPEG4/ISO/AVC
Продолжительность                        : 56 м.
Битрейт                                  : 5105 Кбит/сек
Ширина                                   : 1920 пикселей
Высота                                   : 1080 пикселей
Соотношение сторон                       : 16:9
Режим частоты кадров                     : Постоянный
Частота кадров                           : 23,976 кадра/сек
Цветовое пространство                    : YUV
Субдискретизация насыщенности            : 4:2:0
Битовая глубина                          : 8 бит
Тип развёртки                            : Прогрессивная
Бит/(Пиксели*Кадры)                      : 0.103
Размер потока                            : 2,02 Гбайт (80%)
Заголовок                                : Falling.Water.S01E01.1080p.WEB-DL.2xRus.Eng.sergiy_psp
Язык                                     : English
Default                                  : Да
Forced                                   : Нет
Основные цвета                           : BT.709
Характеристики трансфера                 : BT.709
Коэффициенты матрицы                     : BT.709
colour_range                             : Limited
Аудио #1
Идентификатор                            : 2
Формат                                   : AC-3
Формат/Информация                        : Audio Coding 3
Расширение режима                        : CM (complete main)
Параметр Endianness формата              : Big
Идентификатор кодека                     : A_AC3
Продолжительность                        : 56 м.
Вид битрейта                             : Постоянный
Битрейт                                  : 384 Кбит/сек
Каналы                                   : 6 каналов
Расположение каналов                     : Front: L C R, Side: L R, LFE
Частота                                  : 48,0 КГц
Битовая глубина                          : 16 бит
Метод сжатия                             : С потерями
Размер потока                            : 156 Мбайт (6%)
Заголовок                                : AC3 5.1 @ 384 kbps |Newstudio|
Язык                                     : Russian
Default                                  : Да
Forced                                   : Нет
Аудио #2
Идентификатор                            : 3
Формат                                   : AC-3
Формат/Информация                        : Audio Coding 3
Расширение режима                        : CM (complete main)
Параметр Endianness формата              : Big
Идентификатор кодека                     : A_AC3
Продолжительность                        : 56 м.
Вид битрейта                             : Постоянный
Битрейт                                  : 384 Кбит/сек
Каналы                                   : 6 каналов
Расположение каналов                     : Front: L C R, Side: L R, LFE
Частота                                  : 48,0 КГц
Битовая глубина                          : 16 бит
Метод сжатия                             : С потерями
Размер потока                            : 156 Мбайт (6%)
Заголовок                                : AC3 5.1 @ 384 kbps |BaibaKo|
Язык                                     : Russian
Default                                  : Нет
Forced                                   : Нет
Аудио #3
Идентификатор                            : 4
Формат                                   : AC-3
Формат/Информация                        : Audio Coding 3
Расширение режима                        : CM (complete main)
Параметр Endianness формата              : Big
Идентификатор кодека                     : A_AC3
Продолжительность                        : 56 м.
Вид битрейта                             : Постоянный
Битрейт                                  : 384 Кбит/сек
Каналы                                   : 6 каналов
Расположение каналов                     : Front: L C R, Side: L R, LFE
Частота                                  : 48,0 КГц
Битовая глубина                          : 16 бит
Метод сжатия                             : С потерями
Размер потока                            : 156 Мбайт (6%)
Заголовок                                : AC3 5.1 @ 384 kbps |Original|
Язык                                     : English
Default                                  : Нет
Forced                                   : Нет
Текст
Идентификатор                            : 5
Формат                                   : UTF-8
Идентификатор кодека                     : S_TEXT/UTF8
Идентификатор кодека/Информация          : UTF-8 Plain Text
Заголовок                                : eng sub (полные)
Язык                                     : English
Default                                  : Нет
Forced                                   : Нет
-

✘ Скриншоты ✘


--Внимание!--

✘ Раздача ведётся путём добавления новых серий ✘

Внимание! Раздача ведётся путём добавления новых серий; при каждом добавлении создётся новый торрент. Чтобы начать докачку новой серии, пользователям необходимо сделать следующее:
(1) остановить скачивание,
(2) удалить старый торрент у себя из клиента (старые серии удалять не надо),
(3) скачать новый торрент и запустить его у себя в клиенте вместо старого, при этом указать клиенту путь в старую папку куда и должно происходить скачивание новых серий.-Ваш клиент при этом должен произвести хеширование (проверку) старой папки (если не производит сам - помогите ему сделать это), и будет докачивать только те серии которых у вас ещё нет. Старые серии при этом не удаляются, а продолжают раздаваться!-Eсли вы уже удалили старые серии, то предотвратить повторную закачку старых серий можно, отжав галочку в соответсвующих местах при запуске нового торрента.
...
Вне форума [Профиль] [ЛС]
Показать сообщения:    
Ответить на тему

Текущее время: Сегодня 20:55

Часовой пояс: GMT + 3



Вы не можете начинать темы
Вы не можете отвечать на сообщения
Вы не можете редактировать свои сообщения
Вы не можете удалять свои сообщения
Вы не можете голосовать в опросах
Вы не можете прикреплять файлы к сообщениям
Вы не можете скачивать файлы