Сегодня идет свободное скачивание без начисления Download

Супергёрл / Supergirl / Сезон: 2 / Серия: 1 из 22 (Глен Винтер) [2016 г., фантастика, боевик, драма, приключения, HDTVRip 720p] MVO (Jaskier) + Original

Ответить на тему
 
Автор
Сообщение

Omen ®

Стаж: 5 лет 10 месяцев

Сообщений: 184329

Торрент-статистика

Пост 13-Окт-2016 01:00

[Цитировать]

Супергёрл / Supergirl -Оригинальное название: Supergirl
Русское название: Супергёрл
Год выпуска: 2016
Страна: США
Жанр: фантастика, экранизация комиксов, боевик, приключения
Продолжительность: ~40 минут (серия)-Перевод: Профессиональный (многоголосый закадровый) Студия Jaskier-Режиссёр: Глен Винтер-В ролях: Мелисса Бенойст, Дерек Мио, Jaidan Jiron, Бен Бегли, Лаура Бенанти, Мехкад Брукс, Дин Кэйн, Зэйн Эмори, Калиста Флокхарт, Тони Френч и др.-Описание: Супергёрл расскажет историю Кары Зор-Эл с планеты Криптон. После уничтожения родной планеты Кара прибывает на Землю, где скрывает свои сверхчеловеческие способности. Однако по достижении 24 лет она решает использовать свою силу во благо и стать тем героем, которым всегда хотела быть.-Сэмпл-Качество: HDTVRip 720p
Формат: MKV
Видео кодек: h.264
Аудио кодек: AC3
Видео: AVC, 1280x720 (16:9), 23.976 fps, ~3500 kbps, 0.159bit/pixel-Аудио 1: Dolby AC3, 48 kHz, stereo, 192 kbps Русский
Аудио 2: Dolby AC3, 48 kHz, 6 ch, 384 kbps Оригинал (Английский)
Субтитры: Нет-

MediaInfo

Код:
General
Unique ID                   : 188678989737523448486813532502712501694 (0x8DF2406A3F9B118798EE19DAB041C5BE)
Complete name               : Z:\HD\Supergirl. Season 2 (HDTVRip l 720p l Jaskier)\Supergirl.S02E01.720p.HDTV.X264-JASKiER.mkv
Format                      : Matroska
Format version              : Version 2
File size                   : 920 MiB
Duration                    : 42mn 25s
Overall bit rate            : 3 030 Kbps
Encoded date                : UTC 2016-10-12 00:59:01
Writing application         : mkvmerge v5.4.0 ('Piper') built on Mar 10 2012 13:34:39
Writing library             : libebml v1.2.3   libmatroska v1.3.0
DURATION                    : 00:42:25.536000000
NUMBER_OF_FRAMES            : 79548
NUMBER_OF_BYTES             : 122185728
_STATISTICS_WRITING_APP     : mkvmerge v8.4.0 ('A better way to fly') 64bit
_STATISTICS_WRITING_DATE_UT : 2016-10-10 21:23:46
_STATISTICS_TAGS            : BPS DURATION NUMBER_OF_FRAMES NUMBER_OF_BYTES
Video
ID                          : 1
Format                      : AVC
Format/Info                 : Advanced Video Codec
Format profile              : High@L4.1
Format settings, CABAC      : Yes
Format settings, ReFrames   : 9 frames
Codec ID                    : V_MPEG4/ISO/AVC
Duration                    : 42mn 25s
Bit rate                    : 2 394 Kbps
Width                       : 1 280 pixels
Height                      : 714 pixels
Display aspect ratio        : 16:9
Frame rate mode             : Constant
Frame rate                  : 23.976 fps
Color space                 : YUV
Chroma subsampling          : 4:2:0
Bit depth                   : 8 bits
Scan type                   : Progressive
Bits/(Pixel*Frame)          : 0.109
Stream size                 : 726 MiB (79%)
Writing library             : x264 core 148 r2721 72d53ab
Encoding settings           : cabac=1 / ref=9 / deblock=1:-2:-2 / analyse=0x3:0x133 / me=umh / subme=10 / psy=1 / psy_rd=1.00:0.00 / mixed_ref=1 / me_range=32 / chroma_me=1 / trellis=2 / 8x8dct=1 / cqm=0 / deadzone=21,11 / fast_pskip=0 / chroma_qp_offset=-2 / threads=20 / lookahead_threads=2 / sliced_threads=0 / nr=0 / decimate=1 / interlaced=0 / bluray_compat=0 / constrained_intra=0 / bframes=5 / b_pyramid=2 / b_adapt=2 / b_bias=0 / direct=3 / weightb=1 / open_gop=0 / weightp=2 / keyint=250 / keyint_min=23 / scenecut=40 / intra_refresh=0 / rc_lookahead=60 / rc=crf / mbtree=1 / crf=18.0 / qcomp=0.60 / qpmin=0 / qpmax=69 / qpstep=4 / ip_ratio=1.40 / aq=1:1.00
Language                    : English
Default                     : Yes
Forced                      : No
Color range                 : Limited
Matrix coefficients         : BT.709
DURATION                    : 00:42:25.460000000
NUMBER_OF_FRAMES            : 61030
NUMBER_OF_BYTES             : 780255832
_STATISTICS_WRITING_APP     : mkvmerge v8.4.0 ('A better way to fly') 64bit
_STATISTICS_WRITING_DATE_UT : 2016-10-10 21:23:46
_STATISTICS_TAGS            : BPS DURATION NUMBER_OF_FRAMES NUMBER_OF_BYTES
Audio #1
ID                          : 2
Format                      : AC-3
Format/Info                 : Audio Coding 3
Mode extension              : CM (complete main)
Format settings, Endianness : Big
Codec ID                    : A_AC3
Duration                    : 42mn 25s
Bit rate mode               : Constant
Bit rate                    : 192 Kbps
Channel(s)                  : 2 channels
Channel positions           : Front: L R
Sampling rate               : 48.0 KHz
Compression mode            : Lossy
Stream size                 : 58.3 MiB (6%)
Language                    : Russian
Default                     : Yes
Forced                      : No
Audio #2
ID                          : 3
Format                      : AC-3
Format/Info                 : Audio Coding 3
Mode extension              : CM (complete main)
Format settings, Endianness : Big
Codec ID                    : A_AC3
Duration                    : 42mn 25s
Bit rate mode               : Constant
Bit rate                    : 384 Kbps
Channel(s)                  : 6 channels
Channel positions           : Front: L C R, Side: L R, LFE
Sampling rate               : 48.0 KHz
Compression mode            : Lossy
Stream size                 : 117 MiB (13%)
Language                    : English
Default                     : No
Forced                      : No

Скриншоты

Внимание! Раздача ведётся путём добавления новых серий.

Внимание! Раздача ведётся путём добавления новых серий; при каждом добавлении создётся новый торрент. Чтобы начать докачку новой серии, пользователям необходимо сделать следующее:
  • Остановить скачивание.
  • Удалить старый торрент у себя из клиента (старые серии удалять не надо).
  • Скачать новый торрент и запустить его у себя в клиенте вместо старого, при этом указать клиенту путь в старую папку куда и должно происходить скачивание новых серий.
    Ваш клиент при этом должен произвести хеширование (проверку) старой папки (если не производит сам - помогите ему сделать это), и будет докачивать только те серии которых у вас ещё нет. Старые серии при этом не удаляются, а продолжают раздаваться!
    Eсли вы уже удалили старые серии, то предотвратить повторную закачку старых серий можно, отжав галочку в соответсвующих местах при запуске нового торрента. По возможности, желательно не удалять старые серии как можно дольше чтобы релизёр не столько продолжал раздавать старые серии, а смог сконцентрироваться на новых.
Вне форума [Профиль] [ЛС]
Показать сообщения:    
Ответить на тему

Текущее время: Сегодня 04:08

Часовой пояс: GMT + 3



Вы не можете начинать темы
Вы не можете отвечать на сообщения
Вы не можете редактировать свои сообщения
Вы не можете удалять свои сообщения
Вы не можете голосовать в опросах
Вы не можете прикреплять файлы к сообщениям
Вы не можете скачивать файлы