Сегодня идет свободное скачивание без начисления Download

Бесстыжие / Shameless (US) / Сезон 7 / Серии 1-2 (12) (Марк Майлод) [2016, драма, комедия, HDTVRip] MVO (AlexFilm)

Ответить на тему
 
Автор
Сообщение

Omen ®

Стаж: 5 лет 10 месяцев

Сообщений: 184329

Торрент-статистика

Пост 12-Окт-2016 01:00

[Цитировать]

--Бесстыжие / Shameless
7 сезон, 1-2 серии
-- Год выпуска: 2016
Страна: США
Жанр: драма, комедия
Продолжительность: ~49-57 мин
Перевод: Профессиональный (многоголосый закадровый) (AlexFilm)-Создатель сериала: Пол Эбботт
Режиссеры: Марк Майлод, Джон Уэллс, Мими Ледер, Санаа Хамри, Питер Сигал
В ролях: Уильям Х. Мэйси, Эмми Россам, Камерон Монахэн, Джереми Аллен Уайт, Эмма Кинни, Итэн Каткоски, Блейк Александр Джонсон, Бреннан Кэйн Джонсон, Шанола Хэмптон, Стив Хоуи, Джоан Кьюсак, Ноэль Фишер, Эмма Гринвелл, Джэйк Макдорман...-Описание: Курсы плавания от Фрэнка, излечение от алкоголизма с Липом, адаптация к ранней беременности по методу Дебби, овладение ресторанном делом с Фионой и многое другое ждёт вас в новом сезоне о похождениях самой интересной семьи на свете. Галлагеры вернулись, а значит, осень в этом году скучной не будет точно!-Релиз:
Перевод: Александр Митраков
Монтаж и сведение звука: Михаил Шорыгин
Роли озвучивали:
  • Евгения Тихонова
  • Анастасия Флигина
  • Константин Погодаев
  • Александр Дасевич
  • Михаил Суслов-Сэмпл: http://sendfile.su/1200648- -Внимание! В сериале присутствуют сцены с обнаженной натурой и ненормативная лексика!-Качество: HDTVRip
    Формат: AVI
    Видео: 720x400 (1.80:1), 23.976 fps, XviD ~1400 kbps avg, 0.20 bit/pixel
    Аудио Rus: 48 kHz, MPEG Layer 3, 2 ch, ~128.00 kbps avg
    Аудио Eng: 48 kHz, MPEG Layer 3, 2 ch, ~128.00 kbps avg
    Субтитры: нет-

Скриншоты

MediaInfo

Формат : AVI
Формат/Информация : Audio Video Interleave
Размер файла : 679 Мбайт
Продолжительность : 56 м.
Общий поток : 1672 Кбит/сек
Название фильма : Shameless US 6x01 @ AlexFilm
Программа кодирования : VirtualDubMod 1.5.10.2 (build 2540/release)
Библиотека кодирования : VirtualDubMod build 2540/release
Видео
Идентификатор : 0
Формат : MPEG-4 Visual
Профиль формата : Advanced Simple@L5
Параметр BVOP формата : Нет
Параметр QPel формата : Нет
Параметр GMC формата : Без точки перехода
Параметр матрицы формата : Default (H.263)
Идентификатор кодека : XVID
Идентификатор кодека/Подсказка : XviD
Продолжительность : 56 м.
Битрейт : 1402 Кбит/сек
Ширина : 720 пикселей
Высота : 400 пикселей
Соотношение сторон : 16:9
Частота кадров : 23,976 кадра/сек
Цветовое пространство : YUV
Субдискретизация насыщенности : 4:2:0
Битовая глубина : 8 бит
Тип развёртки : Прогрессивная
Метод сжатия : С потерями
Бит/(Пиксели*Кадры) : 0.203
Размер потока : 569 Мбайт (84%)
Библиотека кодирования : XviD 73
Аудио #1
Идентификатор : 1
Формат : MPEG Audio
Версия формата : Version 1
Профиль формата : Layer 3
Режим : Joint stereo
Расширение режима : MS Stereo
Идентификатор кодека : 55
Идентификатор кодека/Подсказка : MP3
Продолжительность : 56 м.
Вид битрейта : Постоянный
Битрейт : 128 Кбит/сек
Каналы : 2 канала
Частота : 48,0 КГц
Метод сжатия : С потерями
Размер потока : 52,0 Мбайт (8%)
Выравнивание : Соединение по промежуткам
Продолжительность промежутка : 42 мс. (1,00 видеокадр)
Время предзагрузки промежутка : 504 мс.
Заголовок : Russian (AlexFilm)
Аудио #2
Идентификатор : 2
Формат : MPEG Audio
Версия формата : Version 1
Профиль формата : Layer 3
Режим : Joint stereo
Расширение режима : MS Stereo
Идентификатор кодека : 55
Идентификатор кодека/Подсказка : MP3
Продолжительность : 56 м.
Вид битрейта : Постоянный
Битрейт : 128 Кбит/сек
Каналы : 2 канала
Частота : 48,0 КГц
Метод сжатия : С потерями
Размер потока : 52,0 Мбайт (8%)
Выравнивание : Соединение по промежуткам
Продолжительность промежутка : 42 мс. (1,00 видеокадр)
Время предзагрузки промежутка : 504 мс.
Заголовок : English
Библиотека кодирования : LAME3.90.3

Внимание! Раздача ведётся путём добавления новых серий

Внимание! Раздача ведётся путём добавления новых серий; при каждом добавлении создаётся новый торрент. Чтобы начать докачку новой серии, пользователям необходимо сделать следующее:
(1) остановить скачивание,
(2) удалить старый торрент у себя из клиента (старые серии удалять не надо),
(3) скачать новый торрент и запустить его у себя в клиенте вместо старого, при этом указать клиенту путь в старую папку куда и должно происходить скачивание новых серий.
Ваш клиент при этом должен произвести хеширование (проверку) старой папки (если не производит сам - помогите ему сделать это), и будет докачивать только те серии которых у вас ещё нет. Старые серии при этом не удаляются, а продолжают раздаваться!
Eсли вы уже удалили старые серии, то предотвратить повторную закачку старых серий можно, отжав галочку в соответствующих местах при запуске нового торрента. По возможности, желательно не удалять старые серии как можно дольше чтобы релизёр не столько продолжал раздавать старые серии, а смог сконцентрироваться на новых.
--
Вне форума [Профиль] [ЛС]
Показать сообщения:    
Ответить на тему

Текущее время: Сегодня 10:01

Часовой пояс: GMT + 3



Вы не можете начинать темы
Вы не можете отвечать на сообщения
Вы не можете редактировать свои сообщения
Вы не можете удалять свои сообщения
Вы не можете голосовать в опросах
Вы не можете прикреплять файлы к сообщениям
Вы не можете скачивать файлы