Сегодня идет свободное скачивание без начисления Download

Бриджет и Эймон / Bridget & Eamon / Сезон: 1 / Серии: 1 (6) (Джейсон Батлер) [2016, Комедия, HDTVRip-AVC] DVO (Ozz) + Original + Sub Rus

Ответить на тему
 
Автор
Сообщение

Omen ®

Стаж: 5 лет 11 месяцев

Сообщений: 184329

Торрент-статистика

Пост 12-Окт-2016 01:00

[Цитировать]

Bridget & Eamon - First Season
Бриджет и Эймон - Первый сезон- Год выхода: 2016
Страна: Ирландия
Жанр: комедия
Продолжительность: ~24 мин.
Перевод: Профессиональный (двухголосый закадровый) Ozz-Режиссер: Джейсон БатлерВ ролях: Дженнифер Магвайр, Бернард О’Ши, Edwin Sammon, Колум МакДоннел, Норма Шихан, Eleanor Tiernan, Sharon Mannion, Kevin Savage, Alexander Colgan, Hannah Foley и др.-Описание: Ирландия, 1980-е. Бриджет и Эймон - типичная несчастливо женатая пара. Живут в маленьком пригороде с неопределённым количеством детей. Жена - скряга, курит как паровоз и мечтает о лучшей жизни. Муж от этого всего не восторге и вынужден выживать. Абсурдная комедия о чуть ли не самых известных комедийных персонажах Ирландии.- --Sample- Роли озвучивают: |Ирина Воронова и Алексей Серёгин|
Автор перевода: |Александр Шумилов (Посткомедия)|
Подготовлено: Ozz-Качество: HDTVRip
Формат: MKV
Видео кодек: AVC
Аудио кодек: AC3
Видео: AVC, 720x404 (16:9), 25 fps, 13000 kbps avg, 0.160 bit/pixel
Аудио #1: Russian 48 kHz, AC3 , 2 channels, 192 kbps |Ozz|
Аудио #2: English 48 kHz, AC3, 2 channels, 192 kbps |Eng|
Субтитры: русские [srt]

MediaInfo

Код:
Общее
Уникальный идентификатор                 : 230954545514169184520382957012040871054 (0xADC03A3D6D6C9376B04BFB02FA10EC8E)
Полное имя                               : H:\Bridget.&.Eamon.S01.HDTVRip.Rus.Eng.Ozz\Bridget.&.Eamon.S01E01.HDTVRip.Rus.Eng.Ozz.mkv
Формат                                   : Matroska
Версия формата                           : Version 4 / Version 2
Размер файла                             : 270 Мбайт
Продолжительность                        : 23 м.
Общий поток                              : 1580 Кбит/сек
Дата кодирования                         : UTC 2016-10-11 14:44:24
Программа кодирования                    : mkvmerge v6.3.0 ('You can't stop me!') built on Jun 28 2013 20:09:41
Библиотека кодирования                   : libebml v1.3.0 + libmatroska v1.4.0
Видео
Идентификатор                            : 1
Формат                                   : AVC
Формат/Информация                        : Advanced Video Codec
Профиль формата                          : Main@L4.0
Параметр CABAC формата                   : Да
Параметр ReFrames формата                : 4 кадра
Идентификатор кодека                     : V_MPEG4/ISO/AVC
Продолжительность                        : 23 м.
Битрейт                                  : 1164 Кбит/сек
Ширина                                   : 720 пикселей
Высота                                   : 404 пикселя
Соотношение сторон                       : 16:9
Режим частоты кадров                     : Постоянный
Частота кадров                           : 25,000 кадров/сек
Цветовое пространство                    : YUV
Субдискретизация насыщенности            : 4:2:0
Битовая глубина                          : 8 бит
Тип развёртки                            : Прогрессивная
Бит/(Пиксели*Кадры)                      : 0.160
Размер потока                            : 199 Мбайт (74%)
Default                                  : Да
Forced                                   : Нет
Основные цвета                           : BT.709
Характеристики трансфера                 : BT.709
Коэффициенты матрицы                     : BT.709
Аудио #1
Идентификатор                            : 2
Формат                                   : AC-3
Формат/Информация                        : Audio Coding 3
Расширение режима                        : CM (complete main)
Параметр Endianness формата              : Big
Идентификатор кодека                     : A_AC3
Продолжительность                        : 23 м.
Вид битрейта                             : Постоянный
Битрейт                                  : 192 Кбит/сек
Каналы                                   : 2 канала
Расположение каналов                     : Front: L R
Частота                                  : 48,0 КГц
Битовая глубина                          : 16 бит
Метод сжатия                             : С потерями
Размер потока                            : 32,8 Мбайт (12%)
Заголовок                                : DVO Ozz-tv
Язык                                     : Russian
Default                                  : Да
Forced                                   : Нет
Аудио #2
Идентификатор                            : 3
Формат                                   : AC-3
Формат/Информация                        : Audio Coding 3
Расширение режима                        : CM (complete main)
Параметр Endianness формата              : Big
Идентификатор кодека                     : A_AC3
Продолжительность                        : 23 м.
Вид битрейта                             : Постоянный
Битрейт                                  : 192 Кбит/сек
Каналы                                   : 2 канала
Расположение каналов                     : Front: L R
Частота                                  : 48,0 КГц
Битовая глубина                          : 16 бит
Метод сжатия                             : С потерями
Размер потока                            : 32,8 Мбайт (12%)
Язык                                     : English
Default                                  : Нет
Forced                                   : Нет
Текст
Идентификатор                            : 4
Формат                                   : UTF-8
Идентификатор кодека                     : S_TEXT/UTF8
Идентификатор кодека/Информация          : UTF-8 Plain Text
Язык                                     : Russian
Default                                  : Нет
Forced                                   : Нет
-

Скриншоты

Внимание! Раздача ведётся путём добавления новых серий

Внимание! Раздача ведётся путём добавления новых серий; при каждом добавлении создаётся новый торрент. Чтобы начать докачку новой серии, пользователям необходимо сделать следующее:
(1) остановить скачивание,
(2) удалить старый торрент у себя из клиента (старые серии удалять не надо),
(3) скачать новый торрент и запустить его у себя в клиенте вместо старого, при этом указать клиенту путь в старую папку куда и должно происходить скачивание новых серий.
Ваш клиент при этом должен произвести хеширование (проверку) старой папки (если не производит сам - помогите ему сделать это), и будет докачивать только те серии которых у вас ещё нет. Старые серии при этом не удаляются, а продолжают раздаваться!
Eсли вы уже удалили старые серии, то предотвратить повторную закачку старых серий можно, отжав галочку в соответствующих местах при запуске нового торрента. По возможности, желательно не удалять старые серии как можно дольше чтобы релизёр не столько продолжал раздавать старые серии, а смог сконцентрироваться на новых.
-
Вне форума [Профиль] [ЛС]
Показать сообщения:    
Ответить на тему

Текущее время: Сегодня 18:14

Часовой пояс: GMT + 3



Вы не можете начинать темы
Вы не можете отвечать на сообщения
Вы не можете редактировать свои сообщения
Вы не можете удалять свои сообщения
Вы не можете голосовать в опросах
Вы не можете прикреплять файлы к сообщениям
Вы не можете скачивать файлы