Сегодня идет свободное скачивание без начисления Download

Ложное обвинение / Conviction / Сезон: 1 / Серии: 1 из 13 (Лиз Фридлендер, Роб Шейденгланц) [2016, США, Драма, WEB-DL 720p] DVO (Levelin)

Ответить на тему
 
Автор
Сообщение

Omen ®

Стаж: 5 лет 11 месяцев

Сообщений: 184329

Торрент-статистика

Пост 12-Окт-2016 01:00

[Цитировать]

--Ложное обвинение / Conviction-- Год выпуска: 2016
Страна: США
Жанр: Драма
Продолжительность: ~42 min
Перевод: Двухголосый закадровый [Levelin]-Режиссёр: Лиз Фридлендер, Роб Шейденгланц
В ролях: Эмили Кинни, Хейли Этвелл, Эдди Кехилл, Шон Эшмор, Меррин Данги, Мэнни Монтана, Дэниел Фрэнзиси, Йен Паола, Бесс Армстронг и другие-Описание: В центре сюжета находится адвокат и дочь бывшего президента США, которая в результате шантажа вынуждена возглавить Conviction Integrity Unit в Нью-Йорке, подразделение, созданное с целью пересматривать случаи неправомерно осужденных.-Релиз: -Перевод: Аделина Фризен
Роли озвучивали:
- Ариса Лебедева
- Семён Ващенко-- -Качество: WEB-DL 720p
Контейнер: MKV
Видео: AVC, 1280x720, 16:9, 23.976 FPS, ~4 000 kb/s
Аудио: AC3, 48.0 kHz, 2 channels, 192 kb/s
Субтитры: отсутствуют

MediaInfo

Format : Matroska
Format version : Version 4 / Version 2
File size : 1.30 GiB
Duration : 44 min
Overall bit rate : 4 233 kb/s
Encoded date : UTC 2016-10-11 12:46:13
Writing application : mkvmerge v8.3.0 ('Over the Horizon') 64bit
Writing library : libebml v1.3.1 + libmatroska v1.4.2
Video
ID : 1
Format : AVC
Format/Info : Advanced Video Codec
Format profile : High@L3.1
Format settings, CABAC : No
Format settings, ReFrames : 2 frames
Codec ID : V_MPEG4/ISO/AVC
Duration : 44 min
Bit rate : 4 039 kb/s
Width : 1 280 pixels
Height : 720 pixels
Display aspect ratio : 16:9
Frame rate mode : Constant
Frame rate : 23.976 (23976/1000) FPS
Color space : YUV
Chroma subsampling : 4:2:0
Bit depth : 8 bits
Scan type : Progressive
Bits/(Pixel*Frame) : 0.183
Stream size : 1.24 GiB (95%)
Language : English
Default : Yes
Forced : No
Color range : Limited
Color primaries : BT.709
Transfer characteristics : BT.709
Matrix coefficients : BT.709
Audio
ID : 2
Format : AC-3
Format/Info : Audio Coding 3
Mode extension : CM (complete main)
Format settings, Endianness : Big
Codec ID : A_AC3
Duration : 44 min
Bit rate mode : Constant
Bit rate : 192 kb/s
Channel(s) : 2 channels
Channel positions : Front: L R
Sampling rate : 48.0 kHz
Frame rate : 31.250 FPS (1536 spf)
Compression mode : Lossy
Stream size : 60.6 MiB (5%)
Title : Levelin
Language : Russian
Default : Yes
Forced : No

Скриншоты

Внимание! Раздача ведется путем добавления новых серий!

Внимание! Раздача ведётся путём добавления новых серий; при каждом добавлении создётся новый торрент. Чтобы начать докачку новой серии, пользователям необходимо сделать следующее:
(1) остановить скачивание,
(2) удалить старый торрент у себя из клиента (старые серии удалять не надо),
(3) скачать новый торрент и запустить его у себя в клиенте вместо старого, при этом указать клиенту путь в старую папку куда и должно происходить скачивание новых серий.
Ваш клиент при этом должен произвести хеширование (проверку) старой папки (если не производит сам - помогите ему сделать это), и будет докачивать только те серии которых у вас ещё нет. Старые серии при этом не удаляются, а продолжают раздаваться!
Eсли вы уже удалили старые серии, то предотвратить повторную закачку старых серий можно, отжав галочку в соответсвующих местах при запуске нового торрента
Вне форума [Профиль] [ЛС]
Похожие темы
Форум Тема Автор Торрент Отв. Посл. сообщение
./templates/default/images/folder_dl.gif Для детей, родителей и учителей Елена Красовская | Карнавальные костюмы своими руками. От сложной идеи до костюма-пятиминутки (2017) [PDF] XP1971
1 | 0

0 | 2186

4

2017-12-01 12:42
XP1971 Последнее
Показать сообщения:    
Ответить на тему

Текущее время: Сегодня 15:04

Часовой пояс: GMT + 3



Вы не можете начинать темы
Вы не можете отвечать на сообщения
Вы не можете редактировать свои сообщения
Вы не можете удалять свои сообщения
Вы не можете голосовать в опросах
Вы не можете прикреплять файлы к сообщениям
Вы не можете скачивать файлы