Сегодня идет свободное скачивание без начисления Download

Шоу Тома и Джерри / The Tom and Jerry Show / Сезон: 2 / Серии: 4-9 из 18 (Даррел Ван Киттерс / Darrell Van Citters) [2015, США, Мультипликация, HDTVRip 720] Dub

Ответить на тему
 
Автор
Сообщение

Omen ®

Стаж: 4 года 10 месяцев

Сообщений: 190643

Торрент-статистика

Пост 12-Окт-2016 01:00

[Цитировать]

Шоу Тома и Джерри / The Tom and Jerry Show
Страна: США
Жанр: Мультипликация
Продолжительность: ~00:22:00
Год выпуска: 2015
Перевод: Профессиональный (дублированный)
Русские субтитры: нет-Режиссёр: Даррел Ван Киттерс / Darrell Van Citters
Роли озвучивали: Рик Зефф, Джейсон Александр, Джои Д’Аурия, Грэй ДеЛисл, Рене Мухика, Эрик Бауза, Рэйчел МакФарлейн, Alicyn Packard, Крис Парнелл, Кри Саммер-Описание: Новые истории соперничества кота Тома и мышонка Джерри. Том упорно гоняется за Джерри и каждая новая уловка хитрого кота изобретательней предыдущей, но мышонок дает достойный отпор своему сопернику, не теряя возможности сделать ему между прочим какую-нибудь пакость.--Качество: HDTVRip 720p
Формат: MKV
Видео: AVC, 1280x720 (16:9), 23.976 fps, 1 453 Kbps (0.066 bit/pixel)
Аудио 1: AC-3, 48.0 KHz, 2 ch, 192 Kbps, CBR (Russian)
Аудио 2: AC-3, 48.0 KHz, 6 ch, 448 Kbps, CBR (English)
Субтитры: English
Семпл: Забираем тут

Список серий:

s01e01 - Dental Case / Picture Imperfect / One-Way Cricket
s01e02 - Slinging in the Rain / Squeaky Clean / Tough Luck Duck
s01e03 - The Paper Airplane Chase / Round Tripped / Smitten with the Kitten
s01e04 - Cheesy Ball Run / Say Uncle / Here Come's the Bribe
s01e05 - Slaphappy Birthday / Reward If Lost / Big Top Tom
s01e06 - X Marks the Thumpin / Dragon Down the Holidays / Baby Blues

Подробные технические данные

ОбщееУникальный идентификатор : 187428789333836451797578410765387102312 (0x8D0178C6B1A33750B25B8E08EF5CF868)Полное имя : the tom and jerry show s02e02 720p.mkvФормат : MatroskaВерсия формата : Version 4 / Version 2Размер файла : 323 МбайтПродолжительность : 21 м.Общий поток : 2136 Кбит/секДата кодирования : UTC 2016-10-07 09:49:49Программа кодирования : mkvmerge v8.8.0 ('Wind at my back') 64bitБиблиотека кодирования : libebml v1.3.3 + libmatroska v1.4.4
ВидеоИдентификатор : 1Формат : AVCФормат/Информация : Advanced Video CodecПрофиль формата : High@L4.1Параметр CABAC формата : ДаПараметр ReFrames формата : 9 кадровИдентификатор кодека : V_MPEG4/ISO/AVCПродолжительность : 21 м.Битрейт : 1494 Кбит/секШирина : 1280 пикселейВысота : 720 пикселейСоотношение сторон : 16:9Режим частоты кадров : ПостоянныйЧастота кадров : 23,976 (24000/1001) кадра/секЦветовое пространство : YUVСубдискретизация насыщенности : 4:2:0Битовая глубина : 8 битТип развёртки : ПрогрессивнаяБит/(Пиксели*Кадры) : 0.068Размер потока : 226 Мбайт (70%)Библиотека кодирования : x264 core 148 r2665 a01e339Настройки программы : cabac=1 / ref=9 / deblock=1:1:1 / analyse=0x3:0x113 / me=umh / subme=8 / psy=1 / psy_rd=0.40:0.00 / mixed_ref=1 / me_range=16 / chroma_me=1 / trellis=1 / 8x8dct=1 / cqm=0 / deadzone=21,11 / fast_pskip=1 / chroma_qp_offset=-2 / threads=12 / lookahead_threads=3 / sliced_threads=0 / nr=0 / decimate=1 / interlaced=0 / bluray_compat=0 / constrained_intra=0 / bframes=5 / b_pyramid=2 / b_adapt=2 / b_bias=0 / direct=3 / weightb=1 / open_gop=0 / weightp=2 / keyint=250 / keyint_min=25 / scenecut=40 / intra_refresh=0 / rc_lookahead=50 / rc=crf / mbtree=1 / crf=18.0 / qcomp=0.60 / qpmin=0 / qpmax=69 / qpstep=4 / ip_ratio=1.40 / aq=1:0.60Язык : EnglishDefault : ДаForced : Нет
Аудио #1Идентификатор : 2Формат : AC-3Формат/Информация : Audio Coding 3Расширение режима : CM (complete main)Параметр Endianness формата : BigИдентификатор кодека : A_AC3Продолжительность : 21 м.Вид битрейта : ПостоянныйБитрейт : 192 Кбит/секКаналы : 2 каналаРасположение каналов : Front: L RЧастота : 48,0 КГцЧастота кадров : 31,250 кадров/сек (1536 spf)Метод сжатия : С потерямиРазмер потока : 29,0 Мбайт (9%)Язык : RussianDefault : ДаForced : Нет
Аудио #2Идентификатор : 3Формат : AC-3Формат/Информация : Audio Coding 3Расширение режима : CM (complete main)Параметр Endianness формата : BigИдентификатор кодека : A_AC3Продолжительность : 21 м.Вид битрейта : ПостоянныйБитрейт : 448 Кбит/секКаналы : 6 каналовРасположение каналов : Front: L C R, Side: L R, LFEЧастота : 48,0 КГцЧастота кадров : 31,250 кадров/сек (1536 spf)Метод сжатия : С потерямиРазмер потока : 67,8 Мбайт (21%)Язык : EnglishDefault : НетForced : Нет
ТекстИдентификатор : 4Формат : UTF-8Идентификатор кодека : S_TEXT/UTF8Идентификатор кодека/Информация : UTF-8 Plain TextПродолжительность : 21 м.Битрейт : 46 бит/секCount of elements : 206Размер потока : 7,20 Кбайт (0%)Язык : EnglishDefault : НетForced : Нет

Внимание! Раздача ведется путем добавления новых серий

Внимание! Раздача ведётся путём добавления новых серий; при каждом добавлении создётся новый торрент. Чтобы начать докачку новой серии, пользователям необходимо сделать следующее:
(1) остановить скачивание,
(2) удалить старый торрент у себя из клиента (старые серии удалять не надо),
(3) скачать новый торрент и запустить его у себя в клиенте вместо старого, при этом указать клиенту путь в старую папку куда и должно происходить скачивание новых серий.
Ваш клиент при этом должен произвести хеширование (проверку) старой папки (если не производит сам - помогите ему сделать это), и будет докачивать только те серии которых у вас ещё нет. Старые серии при этом не удаляются, а продолжают раздаваться!
Eсли вы уже удалили старые серии, то предотвратить повторную закачку старых серий можно, отжав галочку в соответсвующих местах при запуске нового торрента. По возможности, желательно не удалять старые серии как можно дольше чтобы релизёр не столько продолжал раздавать старые серии, а смог сконцентрироваться на новых.

Скриншоты


Вне форума [Профиль] [ЛС]
Показать сообщения:    
Ответить на тему

Текущее время: Сегодня 02:38

Часовой пояс: GMT + 3



Вы не можете начинать темы
Вы не можете отвечать на сообщения
Вы не можете редактировать свои сообщения
Вы не можете удалять свои сообщения
Вы не можете голосовать в опросах
Вы не можете прикреплять файлы к сообщениям
Вы не можете скачивать файлы