Сегодня идет свободное скачивание без начисления Download

Миссия невыполнима / Mission: Impossible / Сезон: 2 / Серии: 1-1 из 16 (Дон Чэффи, Колин Баддс, Арч Николсон, Брайан Тренчард-Смит) [1989, США, боевик, триллер, драма, криминал, приключения, DVDRip] DVO (CBS Drama) + Original

Ответить на тему
 
Автор
Сообщение

Omen ®

Стаж: 5 лет 11 месяцев

Сообщений: 184329

Торрент-статистика

Пост 11-Окт-2016 01:00

[Цитировать]

Миссия невыполнима / Mission: Impossible
Год выпуска: 1989
Страна: США
Жанр: боевик, триллер, драма, криминал, приключения
Продолжительность: 47 мин.
Перевод: Профессиональный (двухголосый закадровый) CBS Drama
Режиссёр: Дон Чэффи, Колин Баддс, Арч Николсон, Брайан Тренчард-Смит
В ролях: Питер Грейвз, Таао Пенглис, Энтони Хэмилтон, Фил Моррис, Боб Джонсон, Джейн Бэдлер, Терри Маркуэлл, Грег Моррис, Патрик Бишоп, Род Муллинар, Адриан Браун, Винсент Болл, Терри Ву, Майкл Лонг, Адриан Райт, Питер Адамс, Гари Дэй, Кэри-Хироюки Тагава, Уильям Заппа, Джеймс Патрик, Эндрю Гилмор, Шон Майерс, Джон де Ланси, Стивен Грайвз, Тед Хэмилтон, Вирджиния Хей, Винс Мартин, Ричард Пайпер, Джеймс Слойан, Роджер Уорд, Нэнси Блэк, Дэвид Камерон, Линда Каннингэм, Линда Дэй Джордж, Теренс Донован, Кайли Фицпатрик, Мюррэй Фой, Николас Хэммонд, Барбара Луна, Ли Райс, Тим Эллиотт, Майкл Грин, Патрик Уорд
Описание: События сериала происходят через 15 лет после последнего сезона оригинального сериала. После того, как его преемника Фелпса на посту руководителя сверхсекретной Impossible Missions Force убивают, он возвращается из отставки и предлагает сформировать новую команду IMF и выследить убийцу. В его команду входят: Николас Блэк, эксперт по маскировке и актёр; Макс Харт, силач; Кейси Рэндалл, агент-топ-модель; и Грант Кольер, сын Барни Кольера, эксперт оригинальных технологий IMF и технический гений в своей области. Найдя убийцу, Джим решает остаться и держать команду вместе.
Возрожденный сериал включал в себя специальные выступления нескольких ветеранов IMF оригинального сериала, в том числе выступления Линды Дэй Джордж и Грега Морриса, игравшего Барни Кольера; сын Грега, Филлип Моррис, сыграл Гранта Кольера, сына Барни.
Доп. информация: Русская звуковая дорожка любезно предоставлена zibizibi.
Сэмпл: http://multi-up.com/1122118
Качество: DVDRip
Формат: MKV
Видео: XviD, 640x480, 4:3, 23.976 fps, 874 kbps
Аудио: MP3, 44.1 kHz, 2 ch, 192 kbps
Аудио 2: MP3, 48.0 kHz, 2 ch, 128 kbps
Субтитры: отсутствуют

Список серий

01. Золотая змея. Часть 1
02. Золотая змея. Часть 2
03. Принцесса
04. Командное выступление
05. Обратный отсчёт
06. Военные игры
07. Цель: Земля
08. Дитя Фюрера
09. Банши
10. Ради искусства
11. Смертельный урожай
12. Культ Карго
13. Убийца
14. Стрелок
15. Церковные колокола в Боготе
16. Пески Сета

MediaInfo

Общее
Уникальный идентификатор : 177208129414106946817899554058587474702 (0x85510B561D392F7BA606264E71C20B0E)
Полное имя : C:\music\Mission_Impossible_The_89_TV_Season\Mission_Impossible_1988_2x01_The_Golden_Serpent_Part_1_DVDRip_by_icc7.mkv
Формат : Matroska
Версия формата : Version 4 / Version 2
Размер файла : 415 Мбайт
Продолжительность : 48 м. 48 с.
Режим общего битрейта : Переменный
Общий поток : 1188 Кбит/сек
Дата кодирования : UTC 2016-10-09 22:00:51
Программа кодирования : mkvmerge v9.0.0 ('Power to progress') 64bit
Библиотека кодирования : libebml v1.3.3 + libmatroska v1.4.4
Видео
Идентификатор : 1
Формат : MPEG-4 Visual
Профиль формата : Advanced Simple@L5
Параметр BVOP формата : Нет
Параметр QPel формата : Нет
Параметр GMC формата : Без точки перехода
Параметр матрицы формата : Default (H.263)
Идентификатор кодека : V_MS/VFW/FOURCC / XVID
Идентификатор кодека/Подсказка : XviD
Продолжительность : 48 м. 47 с.
Битрейт : 874 Кбит/сек
Ширина : 640 пикселей
Высота : 480 пикселей
Соотношение сторон : 4:3
Режим частоты кадров : Постоянный
Частота кадров : 23,976 (24000/1001) кадра/сек
Цветовое пространство : YUV
Субдискретизация насыщенности : 4:2:0
Битовая глубина : 8 бит
Тип развёртки : Прогрессивная
Метод сжатия : С потерями
Бит/(Пиксели*Кадры) : 0.119
Размер потока : 305 Мбайт (74%)
Библиотека кодирования : XviD 1.2.1 (UTC 2008-12-04)
Язык : Russian
Default : Да
Forced : Нет
Аудио #1
Идентификатор : 2
Формат : MPEG Audio
Версия формата : Version 1
Профиль формата : Layer 3
Идентификатор кодека : A_MPEG/L3
Идентификатор кодека/Подсказка : MP3
Продолжительность : 48 м. 48 с.
Вид битрейта : Постоянный
Битрейт : 192 Кбит/сек
Каналы : 2 канала
Частота : 44,1 КГц
Частота кадров : 38,281 кадров/сек (1152 spf)
Метод сжатия : С потерями
Размер потока : 67,0 Мбайт (16%)
Язык : Russian
Default : Да
Forced : Нет
Аудио #2
Идентификатор : 3
Формат : MPEG Audio
Версия формата : Version 1
Профиль формата : Layer 3
Режим : Joint stereo
Расширение режима : MS Stereo
Идентификатор кодека : A_MPEG/L3
Идентификатор кодека/Подсказка : MP3
Продолжительность : 48 м. 47 с.
Вид битрейта : Переменный
Битрейт : 119 Кбит/сек
Номинальный битрейт : 128 Кбит/сек
Каналы : 2 канала
Частота : 48,0 КГц
Частота кадров : 41,667 кадра/сек (1152 spf)
Метод сжатия : С потерями
Размер потока : 41,5 Мбайт (10%)
Библиотека кодирования : LAME3.99r
Настройки программы : -m j -V 4 -q 2 -lowpass 17 --abr 128
Язык : English
Default : Нет
Forced : Нет

Скриншоты

Вне форума [Профиль] [ЛС]
Похожие темы
Форум Тема Автор Торрент Отв. Посл. сообщение
./templates/default/images/folder_dl.gif Философия, Религия, Эзотерика Ноомахия - Дугин А.Г. - Дугин А.Г. Ноомахия. Войны ума. Англия или Британия Морская миссия и позитивный субъект. [2015, PDF/DjVu, RUS] Omen
1 | 0

0 | 1958

0

2016-12-12 01:00
Omen Последнее
./templates/default/images/folder_dl.gif Новинки (HD|DVD|BD|WEB|TV|SAT|PDTV|-Rip) Миссия невыполнима: Последствия / Mission: Impossible - Fallout (Кристофер МакКуорри) [2018 г., боевик, триллер, приключения, WEBRip] MVO | MUZOBOZ Theseus
1 | 0

0 | 931

22

2018-09-15 14:33
Theseus Последнее
Показать сообщения:    
Ответить на тему

Текущее время: Сегодня 10:23

Часовой пояс: GMT + 3



Вы не можете начинать темы
Вы не можете отвечать на сообщения
Вы не можете редактировать свои сообщения
Вы не можете удалять свои сообщения
Вы не можете голосовать в опросах
Вы не можете прикреплять файлы к сообщениям
Вы не можете скачивать файлы