Сегодня идет свободное скачивание без начисления Download

Радиоволна / Frequency / Сезон: 1 / Серии: 1 из 10 (Брэд Андерсон, Джон Т. Кречмер) [2016, США, фантастика, триллер, драма, детектив, WEB-DL 720p] DVO (Levelin)

Ответить на тему
 
Автор
Сообщение

Omen ®

Стаж: 5 лет 6 месяцев

Сообщений: 186946

Торрент-статистика

Пост 10-Окт-2016 01:00

[Цитировать]

--Радиоволна / Frequency-- Год выпуска: 2016
Страна: США
Жанр: фантастика, триллер, драма, детектив
Продолжительность: ~ 42 min
Перевод: Двухголосый закадровый [Levelin]-Режиссёр: Брэд Андерсон, Джон Т. Кречмер
В ролях: Пейтон Лист, Дэниэл Бонжур, Девин Келли, Мекхай Файфер, Ленни Джейкобсон, Райли Смит, Александра Мец, Майкл Роман, Гаретт Баллок и др.-Описание: В основе сюжета сериала лежит история офицера полиции, которой однажды удалось установить связь с помощью радиоволн в своей машине с родным, давно ушедшим отцом. Он был, как и дочь, полицейским детективом, и погиб в 1996 году. Вместе они практикуют странный тандем, который занимается расследованием нераскрытых дел об убийстве. Однако, такая вневременная помощь и советы от потустороннего партнера приводят к усложнению привычной жизни детектива, внося в нее элементы беспорядка и путаницы.-Релиз: -Перевод: Рина Симеонова
Роли озвучивали:
- Ариса Лебедева
- Семён Ващенко-- -Качество: WEB-DL 720p
Контейнер: MKV
Видео: AVC, 1280x718, 16:9, 23.976 fps, ~4000 kbps avg
Аудио: AC3, 48.0 kHz, 2 channels, 192 kb/s
Субтитры: отсутствуют

MediaInfo

Format : Matroska
Format version : Version 4 / Version 2
File size : 1.27 GiB
Duration : 42 min
Overall bit rate : 4 282 kb/s
Encoded date : UTC 2016-10-09 14:10:43
Writing application : mkvmerge v8.3.0 ('Over the Horizon') 64bit
Writing library : libebml v1.3.1 + libmatroska v1.4.2
Video
ID : 1
Format : AVC
Format/Info : Advanced Video Codec
Format profile : High@L3.1
Format settings, CABAC : No
Format settings, ReFrames : 2 frames
Codec ID : V_MPEG4/ISO/AVC
Duration : 42 min
Bit rate : 4 088 kb/s
Width : 1 280 pixels
Height : 718 pixels
Display aspect ratio : 16:9
Frame rate mode : Constant
Frame rate : 23.976 (23976/1000) FPS
Color space : YUV
Chroma subsampling : 4:2:0
Bit depth : 8 bits
Scan type : Progressive
Bits/(Pixel*Frame) : 0.186
Stream size : 1.21 GiB (95%)
Language : English
Default : Yes
Forced : No
Color range : Limited
Color primaries : BT.709
Transfer characteristics : BT.709
Matrix coefficients : BT.709
Audio
ID : 2
Format : AC-3
Format/Info : Audio Coding 3
Mode extension : CM (complete main)
Format settings, Endianness : Big
Codec ID : A_AC3
Duration : 42 min
Bit rate mode : Constant
Bit rate : 192 kb/s
Channel(s) : 2 channels
Channel positions : Front: L R
Sampling rate : 48.0 kHz
Frame rate : 31.250 FPS (1536 spf)
Compression mode : Lossy
Stream size : 58.3 MiB (4%)
Title : Levelin
Language : Russian
Default : Yes
Forced : No

Скриншоты

Внимание! Раздача ведется путем добавления новых серий!

Внимание! Раздача ведётся путём добавления новых серий; при каждом добавлении создётся новый торрент. Чтобы начать докачку новой серии, пользователям необходимо сделать следующее:
(1) остановить скачивание,
(2) удалить старый торрент у себя из клиента (старые серии удалять не надо),
(3) скачать новый торрент и запустить его у себя в клиенте вместо старого, при этом указать клиенту путь в старую папку куда и должно происходить скачивание новых серий.
Ваш клиент при этом должен произвести хеширование (проверку) старой папки (если не производит сам - помогите ему сделать это), и будет докачивать только те серии которых у вас ещё нет. Старые серии при этом не удаляются, а продолжают раздаваться!
Eсли вы уже удалили старые серии, то предотвратить повторную закачку старых серий можно, отжав галочку в соответсвующих местах при запуске нового торрента
Вне форума [Профиль] [ЛС]
Похожие темы
Форум Тема Автор Торрент Отв. Посл. сообщение
./templates/default/images/folder_dl.gif Техническая и научно-популярная литература Книжная серия | Радиолюбитель [28 книг + 4 CD, 3 дополнения] (2003-2012) [PDF, DJVU, ISO] [Обновляемая] Omen
1 | 0

0 | 1017

14

2016-01-26 05:40
Omen Последнее
./templates/default/images/folder_dl.gif Шансон (VA) 100-ка блатных душевных песен на радио Шансон 2 (2017) MP3 | 256 Kbps MaxMix
1 | 0

0 | 6186

5

2017-05-09 22:45
MaxMix Последнее
./templates/default/images/folder_dl.gif Журналы по электротехнике и радиоэлектронике Журнал | Радио №2 (февраль 2018) [PDF] }{@R0N
1 | 0

0 | 315

8

2018-02-23 12:08
}{@R0N Последнее
./templates/default/images/folder_dl.gif Мультимедийные приложения В. Дригалкин | Школа начинающего радиолюбителя с учетом современной электроники [3-е издание] (2018) [EXE] }{@R0N
1 | 0

2 | 14

3

2018-03-28 09:56
XP1971 Последнее
Показать сообщения:    
Ответить на тему

Текущее время: Сегодня 18:36

Часовой пояс: GMT + 3



Вы не можете начинать темы
Вы не можете отвечать на сообщения
Вы не можете редактировать свои сообщения
Вы не можете удалять свои сообщения
Вы не можете голосовать в опросах
Вы не можете прикреплять файлы к сообщениям
Вы не можете скачивать файлы