Сегодня идет свободное скачивание без начисления Download

Вне времени / Timeless / Сезон: 1 / Серии: 1 из 13 (Чарльз Бисон, Нил Маршалл) [2016, фантастика, боевик, драма, приключения, WEB-DL 720p] MVO (Jaskier) + Original

Ответить на тему
 
Автор
Сообщение

Omen ®

Стаж: 5 лет 9 месяцев

Сообщений: 184402

Торрент-статистика

Пост 09-Окт-2016 01:00

[Цитировать]

Вне времени | Timeless- Оригинальное название: Timeless
Русское название: Вне времени
Год выпуска: 2016
Страна: США
Жанр: Фантастика, боевик, драма, приключения
Продолжительность: ~00:45:00-Перевод: Профессиональный (многоголосый закадровый) Студия Jaskier
Субтитры: Нет-Режиссёр: Чарльз Бисон, Нил Маршалл-В ролях: Чад Рук, Эбигейл Спенсер, Мэтт Лантер, Горан Вишнич, Малкольм Баррет, Пэтерсон Джозеф, Сакина Джэффри, Клаудия Дурмит, Мэтт Фрюэр, Гектор Хьюго и др.-Описание: Таинственный преступник крадет секретную машину времени, намереваясь с ее помощью уничтожить Америку, изменив прошлое. На защиту страны встает необычная команда: профессор истории, солдат и ученый. Герои сериала «Вне времени» отправляются на прототипе украденной машины в путешествие во времени, останавливаясь в наиболее критических моментах для страны. Они должны приложить все усилия, чтобы самим не повлиять на ход истории, а также оставаться на шаг впереди опасного злоумышленника. Удастся ли им предотвратить надвигающуюся катастрофу?-Сэмпл-Качество: WEB-DL 720p
Формат: MKV-Видео: AVC, 1278x718 (16:9), 23.976 fps, ~4030 kbps, ~0.183 bit/pixel-Аудио 1: AC3, 48 kHz, 6 ch, 384 kbps Русский
Аудио 2: AC3, 48 kHz, 6 ch, 384 kbps Оригинал (Английский)-Присутствует аудиореклама

MediaInfo

Код:
General
Unique ID                                : 223355286160718483363514285901465543274 (0xA808A9D3A053E666AA3E8B6AE684626A)
Complete name                            : F:\Movies\Сериалы\Timeless. Season 1 (WEB-DL l 720p l Jaskier)\Timeless.2016.S01E01.Pilot.720p.WEB-DL.Jaskier.Rus.Eng.mkv
Format                                   : Matroska
Format version                           : Version 4 / Version 2
File size                                : 1.51 GiB
Duration                                 : 45mn 2s
Overall bit rate                         : 4 800 Kbps
Encoded date                             : UTC 2016-10-08 15:27:25
Writing application                      : mkvmerge v7.8.0 ('River Man') 64bit built on Mar 27 2015 16:31:37
Writing library                          : libebml v1.3.1 + libmatroska v1.4.2
Encoded by                               : orbitron
Group                                    : ViSUM
Video
ID                                       : 1
Format                                   : AVC
Format/Info                              : Advanced Video Codec
Format profile                           : High@L3.1
Format settings, CABAC                   : No
Format settings, ReFrames                : 2 frames
Codec ID                                 : V_MPEG4/ISO/AVC
Duration                                 : 45mn 2s
Bit rate                                 : 4 030 Kbps
Width                                    : 1 278 pixels
Height                                   : 720 pixels
Display aspect ratio                     : 16:9
Frame rate mode                          : Constant
Frame rate                               : 23.976 (23976/1000) fps
Color space                              : YUV
Chroma subsampling                       : 4:2:0
Bit depth                                : 8 bits
Scan type                                : Progressive
Bits/(Pixel*Frame)                       : 0.183
Stream size                              : 1.27 GiB (84%)
Language                                 : English
Default                                  : Yes
Forced                                   : No
Color range                              : Limited
Color primaries                          : BT.709
Transfer characteristics                 : BT.709
Matrix coefficients                      : BT.709
Audio #1
ID                                       : 2
Format                                   : AC-3
Format/Info                              : Audio Coding 3
Mode extension                           : CM (complete main)
Format settings, Endianness              : Big
Codec ID                                 : A_AC3
Duration                                 : 45mn 2s
Bit rate mode                            : Constant
Bit rate                                 : 384 Kbps
Channel(s)                               : 6 channels
Channel positions                        : Front: L C R, Side: L R, LFE
Sampling rate                            : 48.0 KHz
Frame rate                               : 31.250 fps (1536 spf)
Compression mode                         : Lossy
Stream size                              : 124 MiB (8%)
Title                                    : Jaskier
Language                                 : Russian
Default                                  : Yes
Forced                                   : No
Audio #2
ID                                       : 3
Format                                   : AC-3
Format/Info                              : Audio Coding 3
Mode extension                           : CM (complete main)
Format settings, Endianness              : Big
Codec ID                                 : A_AC3
Duration                                 : 45mn 2s
Bit rate mode                            : Constant
Bit rate                                 : 384 Kbps
Channel(s)                               : 6 channels
Channel positions                        : Front: L C R, Side: L R, LFE
Sampling rate                            : 48.0 KHz
Frame rate                               : 31.250 fps (1536 spf)
Compression mode                         : Lossy
Stream size                              : 124 MiB (8%)
Title                                    : original
Language                                 : English
Default                                  : No
Forced                                   : No
Text
ID                                       : 4
Format                                   : UTF-8
Codec ID                                 : S_TEXT/UTF8
Codec ID/Info                            : UTF-8 Plain Text
Duration                                 : 44mn 22s
Bit rate                                 : 107 bps
Count of elements                        : 954
Stream size                              : 34.8 KiB (0%)
Title                                    : original
Language                                 : English
Default                                  : No
Forced                                   : No

Скриншоты

Внимание! Раздача ведётся путём добавления новых серий.

Внимание! Раздача ведётся путём добавления новых серий; при каждом добавлении создётся новый торрент. Чтобы начать докачку новой серии, пользователям необходимо сделать следующее:
  • Остановить скачивание.
  • Удалить старый торрент у себя из клиента (старые серии удалять не надо).
  • Скачать новый торрент и запустить его у себя в клиенте вместо старого, при этом указать клиенту путь в старую папку куда и должно происходить скачивание новых серий.
    Ваш клиент при этом должен произвести хеширование (проверку) старой папки (если не производит сам - помогите ему сделать это), и будет докачивать только те серии которых у вас ещё нет. Старые серии при этом не удаляются, а продолжают раздаваться!
    Eсли вы уже удалили старые серии, то предотвратить повторную закачку старых серий можно, отжав галочку в соответсвующих местах при запуске нового торрента. По возможности, желательно не удалять старые серии как можно дольше чтобы релизёр не столько продолжал раздавать старые серии, а смог сконцентрироваться на новых.
Вне форума [Профиль] [ЛС]
Показать сообщения:    
Ответить на тему

Текущее время: Сегодня 00:16

Часовой пояс: GMT + 3



Вы не можете начинать темы
Вы не можете отвечать на сообщения
Вы не можете редактировать свои сообщения
Вы не можете удалять свои сообщения
Вы не можете голосовать в опросах
Вы не можете прикреплять файлы к сообщениям
Вы не можете скачивать файлы