Сегодня идет свободное скачивание без начисления Download

Голубая кровь / Blue Bloods / Сезон: 7 / Серии: 1-2 из 22 (Дэвид Баррет, Роберт Хармон) [2016, США, драма, криминал, детектив, WEB-DL 1080p] DVO (kiitos) + Original + Subs (Rus, Eng)

Ответить на тему
 
Автор
Сообщение

Omen ®

Стаж: 6 лет 1 месяц

Сообщений: 184308

Торрент-статистика

Пост 09-Окт-2016 01:00

[Цитировать]

Голубая кровь | Blue Bloods-- Год выпуска: 2016-2017 (7 сезон)
Страна: США
Жанр: Драма, криминал, детектив
Продолжительность: ~ 00:45:00
Перевод: Любительский двухголосый закадровый (kiitos.tv)
Субтитры: Русские, английские--Режиссёр: Дэвид Баррет/David M. Barrett, Джон Беринг/John Behring , Роберт Хармон/Robert Harmon, Питер Уэрнер/Peter Werner и др.--В ролях: Tom Selleck (Комиссар полиции Фрэнк Рейган), Donnie Wahlberg (Детектив Дэнни Рейган), Bridget Moynahan (Помощник окружного прокурора Эрин Рейган-Бойл), Will Estes (Джейми Рейган), Len Cariou (Отставной комиссар полиции Генри Рейган), Amy Carlson (Линда Рейган), Marisa Ramirez (Детектив Мария Баэс), Sami Gayle (Никки Рейган-Бойл), Vanessa Ray (Офицер Эдди Дженко), Tony Terraciano (Джек Рейган), Andrew Terraciano (Шон Рейган), Gregory Jbara (Гарретт Мур), Steve Schirripa (Энтони Абатемарко), Robert Clohessy (Стив Гормли), Abigail Hawk (Эбигейл Бейкер), Nicholas Turturro (Сержант Энтони Рензулли) и др.--Описание: Продолжение истории семейства Рейганов - настоящей династии блюстителей порядка и закона в Нью-Йорке, где дети идут по стопам своих родителей и придерживаются схожих взглядов и принципов. Главой семейства является Фрэнк Рейган, занимающий пост комиссара полиции города Нью-Йорк, этот же пост занимал и его отец Генри, вышедший на пенсию. Источник отцовской гордости, но вместе с тем и постоянного беспокойства, его старший сын Дэнни - ветеран войны в Ираке и один из лучших детективов города, раскрывший уже огромное количество дел, но склонный иногда перегнуть палку или действовать не совсем стандартными методами. Эрин - единственная женщина в семье, работает помощником прокурора города, в одиночку воспитывая дочь-подростка Никки и служит компасом закона для братьев и отца. Младшим в семье является Джейми – выпускник Гарварда - у которого были большие перспективы стать успешным юристом, но он бросил возможную карьеру ради продолжения семейного дела. Преданные своему делу до последнего и ежедневно сталкиваясь с проявлениями преступности, они всегда готовы подставить друг другу плечо, ведь они одна дружная и сплочённая семья Рейганов.--

Доп. информация

Источником русской аудиодорожки является релиз группы:
Озвучивание: kiitos, Chertenok
Cведение: kiitos

Из аудиодорожки удалены рекламные вставки
Перевод субтитров: Irver, aaaaaaaaaaaaaaaa, fenix996, kobra22
--

Список серий

01. Высшее благо | The Greater Good
02. Хороший коп, плохой коп | Good Cop Bad Cop
Качество: WEB-DL 1080p
Видео кодек: H.264
Аудио кодек: AC3
Видео: MPEG-4 AVC, 1920х1080(16:9), 23.976 fps, ~ 5000 kbps, 0.105 bpp
Аудио 1: [Русский] AC3, 48 kHz, 6 ch, 384 kbps | kiitos.tv
Аудио 2: [Английский] AC3, 48 kHz, 6 ch, 384 kbps
Субтитры: Русские, английские (SRT)
--

MediaInfo

Код:
General
Unique ID                   : 234677343502030458594939782434564618648 (0xB08D365A13F6D7F6817AFE3560A83998)
Complete name               : I:\...\Blue.Bloods.S07.1080p.WEB-DL.Rus.Eng\Blue.Bloods.S07E01.The.Greater.Good.1080p.WEB-DL.Rus.Eng.mkv
Format                      : Matroska
Format version              : Version 4 / Version 2
File size                   : 1.80 GiB
Duration                    : 43 min 11 s
Overall bit rate mode       : Variable
Overall bit rate            : 5 978 kb/s
Encoded date                : UTC 2016-10-03 12:52:36
Writing application         : mkvmerge v7.5.0 ('Glass Culture') 64bit built on Jan  4 2015 16:48:44
Writing library             : libebml v1.3.1 + libmatroska v1.4.2
Cover                       : Yes
Attachments                 : small_cover.jpg / cover.jpg / cover_land.jpg / small_cover_land.jpg
Video
ID                          : 1
Format                      : AVC
Format/Info                 : Advanced Video Codec
Format profile              : High@L4
Format settings, CABAC      : Yes
Format settings, ReFrames   : 2 frames
Codec ID                    : V_MPEG4/ISO/AVC
Duration                    : 43 min 11 s
Bit rate mode               : Variable
Bit rate                    : 5 207 kb/s
Maximum bit rate            : 768 kb/s
Width                       : 1 920 pixels
Height                      : 1 080 pixels
Display aspect ratio        : 16:9
Frame rate mode             : Constant
Frame rate                  : 23.976 (24000/1001) FPS
Original frame rate         : 25.000 FPS
Color space                 : YUV
Chroma subsampling          : 4:2:0
Bit depth                   : 8 bits
Scan type                   : Progressive
Bits/(Pixel*Frame)          : 0.105
Stream size                 : 1.57 GiB (87%)
Default                     : Yes
Forced                      : No
Audio #1
ID                          : 2
Format                      : AC-3
Format/Info                 : Audio Coding 3
Mode extension              : CM (complete main)
Format settings, Endianness : Big
Codec ID                    : A_AC3
Duration                    : 43 min 11 s
Bit rate mode               : Constant
Bit rate                    : 384 kb/s
Channel(s)                  : 6 channels
Channel positions           : Front: L C R, Side: L R, LFE
Sampling rate               : 48.0 kHz
Frame rate                  : 31.250 FPS (1536 spf)
Compression mode            : Lossy
Stream size                 : 119 MiB (6%)
Title                       : kiitos.tv
Language                    : Russian
Default                     : Yes
Forced                      : No
Audio #2
ID                          : 3
Format                      : AC-3
Format/Info                 : Audio Coding 3
Mode extension              : CM (complete main)
Format settings, Endianness : Big
Codec ID                    : A_AC3
Duration                    : 43 min 11 s
Bit rate mode               : Constant
Bit rate                    : 384 kb/s
Channel(s)                  : 6 channels
Channel positions           : Front: L C R, Side: L R, LFE
Sampling rate               : 48.0 kHz
Frame rate                  : 31.250 FPS (1536 spf)
Compression mode            : Lossy
Stream size                 : 119 MiB (6%)
Language                    : English
Default                     : No
Forced                      : No
Text #1
ID                          : 4
Format                      : UTF-8
Codec ID                    : S_TEXT/UTF8
Codec ID/Info               : UTF-8 Plain Text
Duration                    : 42 min 6 s
Bit rate                    : 148 b/s
Count of elements           : 878
Stream size                 : 45.8 KiB (0%)
Language                    : Russian
Default                     : Yes
Forced                      : No
Text #2
ID                          : 5
Format                      : UTF-8
Codec ID                    : S_TEXT/UTF8
Codec ID/Info               : UTF-8 Plain Text
Duration                    : 42 min 7 s
Bit rate                    : 85 b/s
Count of elements           : 880
Stream size                 : 26.4 KiB (0%)
Language                    : English
Default                     : No
Forced                      : No
--

Внимание! Раздача ведётся путём добавления новых серий

Внимание! Раздача ведётся путём добавления новых серий; при каждом добавлении создаётся новый торрент. Чтобы начать докачку новой серии, пользователям необходимо сделать следующее:
(1) остановить скачивание,
(2) удалить старый торрент у себя из клиента (старые серии удалять не надо),
(3) скачать новый торрент и запустить его у себя в клиенте вместо старого, при этом указать клиенту путь в старую папку куда и должно происходить скачивание новых серий.
Ваш клиент при этом должен произвести хеширование (проверку) старой папки (если не производит сам - помогите ему сделать это), и будет докачивать только те серии которых у вас ещё нет. Старые серии при этом не удаляются, а продолжают раздаваться!
Eсли вы уже удалили старые серии, то предотвратить повторную закачку старых серий можно, отжав галочку в соответствующих местах при запуске нового торрента. По возможности, желательно не удалять старые серии как можно дольше чтобы релизер не столько продолжал раздавать старые серии, а смог сконцентрироваться на новых.
--

Скриншоты


Вне форума [Профиль] [ЛС]
Показать сообщения:    
Ответить на тему

Текущее время: Сегодня 23:46

Часовой пояс: GMT + 3



Вы не можете начинать темы
Вы не можете отвечать на сообщения
Вы не можете редактировать свои сообщения
Вы не можете удалять свои сообщения
Вы не можете голосовать в опросах
Вы не можете прикреплять файлы к сообщениям
Вы не можете скачивать файлы