Сегодня идет свободное скачивание без начисления Download

Стрела / Arrow / Сезон: 5 / Серии: 1 из 23 (Джон Беринг, Гай Норман Би, Глен Винтер) [2016, фантастика, боевик, драма, криминал, WEB-DL 720p] MVO (BaibaKo) + Original

Ответить на тему
 
Автор
Сообщение

Omen ®

Стаж: 5 лет 7 месяцев

Сообщений: 185427

Торрент-статистика

Пост 09-Окт-2016 01:00

[Цитировать]

-Стрела | Arrow-- Год выпуска: 2016
Страна: США
Жанр: фантастика, боевик, драма, криминал
Продолжительность: ~ 00:43:00
Перевод: Профессиональный (многоголосый закадровый) | BaibaKo--Режиссёр: Джон Беринг, Гай Норман Би, Глен Винтер-В ролях: Стивен Амелл, Кэти Кэссиди, Колин Доннелл, Дэвид Рэмси, Уилла Холланд, Сюзанна Томпсон, Пол Блекторн, Эмили Бетт Рикардс, Ману Беннетт, Колтон Хэйнс и другие.--Описание: После кораблекрушения плейбой миллиардер Оливер Куин пропадает и считается погибшим в течение пяти лет, после чего его обнаруживают живым на затерянном острове в Тихом океане. Когда он возвращается домой в Старлинг-Сити, его преданная мать Мойра, столь любимая сестра Теа и лучший друг Томми приветствуют его дома, но они видят, что Оливер изменился после испытаний на острове. Хотя Оливер скрывает правду о человеке, которым он стал…-- --Качество: WEB-DL 720p
Формат: MKV
Видео: x264, ~ 4000 kbps, 1280х718 (16:9), 23,976 fps
Аудио #1: AC3, 48,0 КГц, 6 ch, 384 kbps - Rus
Аудио #2: AC3, 48,0 КГц, 6 ch, 384 kbps - Eng
Субтитры: отсутствуют
Реклама: отсутствует--

Релиз

Перевод: Янина Галицкая
Озвучка: Владимир Курдов, Алексей Кузнецов, Артемий Мирон, Юлия Котурбаш и Светлана Доманова

MediaInfo

Код:
Формат                                   : Matroska
Версия формата                           : Version 2
Размер файла                             : 1,44 Гбайт
Продолжительность                        : 42 м.
Общий поток                              : 4871 Кбит/сек
Дата кодирования                         : UTC 2016-10-07 16:09:57
Программа кодирования                    : mkvmerge v7.8.0 ('River Man') 32bit built on Apr  3 2015 12:11:22
Библиотека кодирования                   : libebml v1.3.1 + libmatroska v1.4.2
Видео
Идентификатор                            : 1
Формат                                   : AVC
Формат/Информация                        : Advanced Video Codec
Профиль формата                          : High@L3.1
Параметр CABAC формата                   : Нет
Параметр ReFrames формата                : 2 кадра
Идентификатор кодека                     : V_MPEG4/ISO/AVC
Продолжительность                        : 42 м.
Битрейт                                  : 4006 Кбит/сек
Ширина                                   : 1280 пикселей
Высота                                   : 718 пикселей
Соотношение сторон                       : 16:9
Режим частоты кадров                     : Постоянный
Частота кадров                           : 23,976 кадра/сек
Цветовое пространство                    : YUV
Субдискретизация насыщенности            : 4:2:0
Битовая глубина                          : 8 бит
Тип развёртки                            : Прогрессивная
Бит/(Пиксели*Кадры)                      : 0.182
Размер потока                            : 1,19 Гбайт (82%)
Язык                                     : English
Default                                  : Да
Forced                                   : Нет
Основные цвета                           : BT.709
Характеристики трансфера                 : BT.709
Коэффициенты матрицы                     : BT.709
Аудио #1
Идентификатор                            : 2
Формат                                   : AC-3
Формат/Информация                        : Audio Coding 3
Расширение режима                        : CM (complete main)
Параметр Endianness формата              : Big
Идентификатор кодека                     : A_AC3
Продолжительность                        : 42 м.
Вид битрейта                             : Постоянный
Битрейт                                  : 384 Кбит/сек
Каналы                                   : 6 каналов
Расположение каналов                     : Front: L C R, Side: L R, LFE
Частота                                  : 48,0 КГц
Битовая глубина                          : 16 бит
Метод сжатия                             : С потерями
Размер потока                            : 116 Мбайт (8%)
Язык                                     : Russian
Default                                  : Да
Forced                                   : Нет
Аудио #2
Идентификатор                            : 3
Формат                                   : AC-3
Формат/Информация                        : Audio Coding 3
Расширение режима                        : CM (complete main)
Параметр Endianness формата              : Big
Идентификатор кодека                     : A_AC3
Продолжительность                        : 42 м.
Вид битрейта                             : Постоянный
Битрейт                                  : 384 Кбит/сек
Каналы                                   : 6 каналов
Расположение каналов                     : Front: L C R, Side: L R, LFE
Частота                                  : 48,0 КГц
Битовая глубина                          : 16 бит
Метод сжатия                             : С потерями
Размер потока                            : 116 Мбайт (8%)
Язык                                     : English
Default                                  : Нет
Forced                                   : Нет

Скриншоты

Раздача ведется путем добавления новых серий

Когда раздача ведётся путём добавления новых серий, при каждом добавлении создётся новый торрент. Чтобы начать докачку новой серии, пользователям необходимо сделать следующее:
(1) остановить скачивание,
(2) удалить старый торрент у себя из клиента (старые серии удалять не надо),
(3) скачать новый торрент и запустить его у себя в клиенте вместо старого, при этом указать клиенту путь в старую папку, куда и должно происходить скачивание новых серий.
Ваш клиент при этом должен произвести хеширование (проверку) старой папки (если не производит сам - помогите ему сделать это), и будет докачивать только те серии, которых у вас ещё нет. Старые серии при этом не удаляются, а продолжают раздаваться!
Eсли вы уже удалили старые серии, то предотвратить повторную закачку старых серий можно, отжав галочку в соответсвующих местах при запуске нового торрента. По возможности, желательно не удалять старые серии как можно дольше, чтобы релизёр не столько продолжал раздавать старые серии, а смог сконцентрироваться на новых.
-
Вне форума [Профиль] [ЛС]
Похожие темы
Форум Тема Автор Торрент Отв. Посл. сообщение
./templates/default/images/folder_dl.gif Фантастика, фэнтези, ужасы, мистика Владимир Стрельников | Опасные тропы. Рядовой срочной службы (2017) [MP3] }{@R0N
1 | 0

0 | 430

4

2018-01-14 16:42
}{@R0N Последнее
./templates/default/images/folder_dl.gif Фантастика, фэнтези, ужасы, мистика Владимир Стрельников | Простые Оружные Парни (2017) [MP3] }{@R0N
1 | 0

0 | 380

3

2018-01-14 16:43
}{@R0N Последнее
Показать сообщения:    
Ответить на тему

Текущее время: Сегодня 22:32

Часовой пояс: GMT + 3



Вы не можете начинать темы
Вы не можете отвечать на сообщения
Вы не можете редактировать свои сообщения
Вы не можете удалять свои сообщения
Вы не можете голосовать в опросах
Вы не можете прикреплять файлы к сообщениям
Вы не можете скачивать файлы