Сегодня идет свободное скачивание без начисления Download

Мотель Бэйтс / Мотель Бейтсов / Bates Motel / Сезон: 2 / Серии: 1-6 (10) (Такер Гейтс / Tucker Gates) [2014, ужасы, триллер, детектив, WEB-DLRip] MVO (Несмертельное оружие) + Original

Ответить на тему
 
Автор
Сообщение

Omen ®

Стаж: 5 лет 11 месяцев

Сообщений: 184329

Торрент-статистика

Пост 08-Окт-2016 01:00

[Цитировать]

- Мотель Бэйтс -
Bates Motel

«Сезон: 2 / Серии: 1-6 (10)»- Страна: США
Студия: The Wolper Organization / Universal Television
Жанр: ужасы, триллер, детектив
Год выпуска: 2014
Продолжительность: 6 x ~44 мин.-Перевод: Профессиональный (многоголосый закадровый) - [Несмертельное оружие]
Субтитры: нет-Режиссёр: Такер Гейтс / Tucker Gates
В ролях: Кэролайн Мэтьюз, Вера Фармига, Фредди Хаймор, Джер Бернс, Мерседес Де Ла Зерда, Мэтт Эллис, Кончита Кэмпбелл, Майк Фогель, Нестор Карбонелл, У. Эрл Браун, Оливия Кук, Эммалин Эстрада, Ричард Хэрмон, Никола Пельтц, Дженна Романин, Макс Тириот, Киган Коннор Трейси, Бриттни Уилсон, Алийа О’Брайен, Александр Кэлверт и др.
Описание: Шоу от создателей «Остаться в живых» и «Огни ночной пятницы», снятое по мотивам культового фильма Альфреда Хичкока «Психо» 1960 года.
После трагической кончины своего мужа Норма Бэйтс покупает мотель на окраине прибрежного города, чтобы начать все с чистого листа. Пока Норма и Норман устраиваются в своем новом доме, они понимают, что у внешне спокойного городка есть свои секреты. Но Бэйтсы не позволят помыкать собой и сделают что угодно, чтобы выжить и сохранить свои тайны.- -Релиз от: -Роли озвучивали: Денис Коровин, Ника Ленина, Олег Варганов, Надежда Серганова, Дмитрий Лунёв, Вероника Стригунова, Михаил Алексеев и Максим Тараненко
Автор перевода: Anna Gerts-Тип релиза: WEB-DLRip
Формат: AVI
Видео кодек: XviD
Аудио кодек: AC3
Видео: 720x400 (16:9), 23.976 fps, XviD MPEG-4 ~1875 kbps avg, 0.271 bit/pixel
| Аудио #1: 48 kHz, AC3 Dolby Digital, 2/0 (L,R) ch, ~192.00 kbps | Russian | MVO
| Аудио #2: 48 kHz, AC3 Dolby Digital, 2/0 (L,R) ch, ~192.00 kbps | English | Original- -

Скриншоты


-

Список серий в раздаче

Эпизод: 01
«Ушла, но не забыта» (Gone But Not Forgotten)
Дата премьерного показа в США: 3 марта 2014 г.- Эпизод: 02
«Тень сомнения» (Shadow of a Doubt)
Дата премьерного показа в США: 10 марта 2014 г.- Эпизод: 03
«Калеб» (Caleb)
Дата премьерного показа в США: 17 марта 2014 г.- Эпизод: 04
«Выписка» (Check-Out)
Дата премьерного показа в США: 24 марта 2014 г.- Эпизод: 05
«Иллюзионист-эскапист» (The Escape Artist)
Дата премьерного показа в США: 31 марта 2014 г.- Эпизод: 06
«Нырок» (Plunge)
Дата премьерного показа в США: 7 апреля 2014 г.-
-

MediaInfo

Код:
General
Complete name                            : Bates.Motel.S02E01.Dual.WEB-DLRip.[Nesmertelnoe.oruzhie].avi
Format                                   : AVI
Format/Info                              : Audio Video Interleave
File size                                : 700 MiB
Duration                                 : 43mn 2s
Overall bit rate                         : 2 273 Kbps
Movie name                               : Мотель Бэйтс / Сезон: 2 / Эпизод: 01 - Ушла, но не забыта
Director                                 : ANTipiGo
Genre                                    : Horror/Thriller
Writing application                      : VirtualDubMod 1.5.10.2 (build 2540/release)
Original source form/Name                : TV-Serie
Copyright                                : Творческое объединение "Несмертельное оружие"
Video
ID                                       : 0
Format                                   : MPEG-4 Visual
Format profile                           : Advanced Simple@L5
Format settings, BVOP                    : 2
Format settings, QPel                    : No
Format settings, GMC                     : No warppoints
Format settings, Matrix                  : Default (MPEG)
Codec ID                                 : XVID
Codec ID/Hint                            : XviD
Duration                                 : 43mn 2s
Bit rate                                 : 1 875 Kbps
Width                                    : 720 pixels
Height                                   : 400 pixels
Display aspect ratio                     : 16:9
Frame rate                               : 23.976 fps
Color space                              : YUV
Chroma subsampling                       : 4:2:0
Bit depth                                : 8 bits
Scan type                                : Progressive
Compression mode                         : Lossy
Bits/(Pixel*Frame)                       : 0.271
Stream size                              : 577 MiB (82%)
Writing library                          : XviD 1.2.1 (UTC 2008-12-04)
Audio #1
ID                                       : 1
Format                                   : AC-3
Format/Info                              : Audio Coding 3
Mode extension                           : CM (complete main)
Format settings, Endianness              : Big
Codec ID                                 : 2000
Duration                                 : 43mn 2s
Bit rate mode                            : Constant
Bit rate                                 : 192 Kbps
Channel(s)                               : 2 channels
Channel positions                        : Front: L R
Sampling rate                            : 48.0 KHz
Bit depth                                : 16 bits
Compression mode                         : Lossy
Stream size                              : 59.1 MiB (8%)
Alignment                                : Split accross interleaves
Interleave, duration                     : 42 ms (1.00 video frame)
Interleave, preload duration             : 500 ms
Title                                    : [RUS] MVO (Несмертельное оружие)
Audio #2
ID                                       : 2
Format                                   : AC-3
Format/Info                              : Audio Coding 3
Mode extension                           : CM (complete main)
Format settings, Endianness              : Big
Codec ID                                 : 2000
Duration                                 : 43mn 2s
Bit rate mode                            : Constant
Bit rate                                 : 192 Kbps
Channel(s)                               : 2 channels
Channel positions                        : Front: L R
Sampling rate                            : 48.0 KHz
Bit depth                                : 16 bits
Compression mode                         : Lossy
Stream size                              : 59.1 MiB (8%)
Alignment                                : Split accross interleaves
Interleave, duration                     : 42 ms (1.00 video frame)
Interleave, preload duration             : 500 ms
Title                                    : [ENG] Original
-

Внимание! Раздача ведется путём добавления новых серий

Раздача ведётся путём добавления новых серий; при каждом добавлении создаётся новый торрент. Чтобы начать докачку новой серии, пользователям необходимо сделать следующее:
• (1) остановить скачивание,
• (2) удалить старый торрент у себя из клиента (старые серии удалять не надо),
• (3) скачать новый торрент и запустить его у себя в клиенте вместо старого, при этом указать клиенту путь в старую папку куда и должно происходить скачивание новых серий.

Ваш клиент при этом должен произвести хеширование (проверку) старой папки (если не производит сам - помогите ему сделать это), и будет докачивать только те серии которых у вас ещё нет. Старые серии при этом не удаляются, а продолжают раздаваться!
Eсли вы уже удалили старые серии, то предотвратить повторную закачку старых серий можно, отжав галочку в соответствующих местах при запуске нового торрента. По возможности, желательно не удалять старые серии как можно дольше чтобы релизёр не столько продолжал раздавать старые серии, а смог сконцентрироваться на новых.
-
Вне форума [Профиль] [ЛС]
Показать сообщения:    
Ответить на тему

Текущее время: Сегодня 02:06

Часовой пояс: GMT + 3



Вы не можете начинать темы
Вы не можете отвечать на сообщения
Вы не можете редактировать свои сообщения
Вы не можете удалять свои сообщения
Вы не можете голосовать в опросах
Вы не можете прикреплять файлы к сообщениям
Вы не можете скачивать файлы