Сегодня идет свободное скачивание без начисления Download

Август: первый анальчик и сразу кремпай / August Taylor's 1st Anal Creampie [2016 г., Blowjob, Anal Sex, Hardcore, SiteRip] (August Taylor)

Ответить на тему
 
Автор
Сообщение

XP1971 ®

Пол:

Стаж: 4 года 9 месяцев

Сообщений: 5293

Торрент-статистика

Пост 07-Окт-2016 19:45

[Цитировать]

-Август: первый анальчик и сразу кремпай

August Taylor's 1st Anal Creampie
-- Страна: USA
Режиссер: N/A
Год выпуска: 2016 г.
Студия: MrStrokesXXX
Перевод: Отсутствует
Продолжительность: 00:55:00
Жанр: Blowjob, Anal Sex, Hardcore
Оригинальный аудиопоток: английский-В ролях:
August Taylor-Оригинальное описание:
To be honest, the girl August does not look to play the virgin, but that she decided to give in the ass on camera says first of all not only of the global crisis economies, not only about albinos from the EU, but also about dumping cheaper world values in the face of vesnovskaya truths, and the lack of crucial leadership qualities among world leaders.-Описание на русском:
Если честно, то девка Август совсем не выглядит целочкой, но то, что она решилась дать в жопу на камеру говорит прежде всего не только о мировом кризисе экономик, не только о выходе альбионов из ЕС, но и о демпинговом удешевлении мировых ценностей в лице вечноискомых истин, а также о недостатке судьбоносных лидерских качеств у лидеров мировых держав. Шучу. Просто Август дала наконец-то в жопу и ей сразу кончили внутрь, вот и всё. Смотрим извращенку.-
Контейнер: MP4
Аудио кодек: AAC
Cубтитры: отсутствуют
Качество видео: SiteRip
Видео кодек: MPEG4 AVC
Аудио: Advanced Audio | 48.0 KHz | 2 ch | 128.0 Kbps
Видео: AVC | 960х540 | 1211 Кbps | 30.0 fps | 0.078 bit/pixel

Media Info

Код:
Общее
Полное имя : August Taylor's 1st Anal Creampie!_[/*spam*/].mp4
Формат : MPEG-4
Профиль формата : Base Media
Идентификатор кодека : isom
Размер файла : 529 Мбайт
Продолжительность : 55 м.
Режим общего битрейта : Переменный
Общий поток : 1344 Кбит/сек
Дата кодирования : UTC 2016-10-02 06:30:56
Дата пометки : UTC 2016-10-02 06:30:56
Программа кодирования : Lavf51.12.1
Видео
Идентификатор : 1
Формат : AVC
Формат/Информация : Advanced Video Codec
Профиль формата : [email protected]/*  */
Параметр CABAC формата : Нет
Параметр ReFrames формата : 1 кадр
Параметр GOP формата : M=1, N=12
Идентификатор кодека : avc1
Идентификатор кодека/Информация : Advanced Video Coding
Продолжительность : 55 м.
Битрейт : 1211 Кбит/сек
Ширина : 960 пикселей
Высота : 540 пикселей
Соотношение сторон : 16:9
Режим частоты кадров : Постоянный
Частота кадров : 30,000 кадров/сек
Цветовое пространство : YUV
Субдискретизация насыщенности : 4:2:0
Битовая глубина : 8 бит
Тип развёртки : Прогрессивная
Бит/(Пиксели*Кадры) : 0.078
Размер потока : 476 Мбайт (90%)
Дата кодирования : UTC 2016-10-02 06:30:56
Дата пометки : UTC 2016-10-02 06:30:56
Аудио
Идентификатор : 2
Формат : AAC
Формат/Информация : Advanced Audio Codec
Профиль формата : LC
Идентификатор кодека : 40
Продолжительность : 55 м.
Вид битрейта : Переменный
Битрейт : 128 Кбит/сек
Каналы : 2 канала
Расположение каналов : Front: L R
Частота : 48,0 КГц
Метод сжатия : С потерями
Размер потока : 50,3 Мбайт (10%)
Язык : English
Дата кодирования : UTC 2016-10-02 06:30:56
Дата пометки : UTC 2016-10-02 06:30:56

Скринлист


_________________
Вне форума [Профиль] [ЛС]
Похожие темы
Форум Тема Автор Торрент Отв. Посл. сообщение
./templates/default/images/folder_dl.gif Игровые и Компьютерные журналы Журнал | Хакер №8 (211) (август 2016) [PDF] }{@R0N
1 | 0

0 | 688

18

2016-09-05 15:18
}{@R0N Последнее
./templates/default/images/folder_dl.gif Домоводство, Хобби, Бизнес Журнал | Твой Дом №8 (30) (август 2017) [PDF] }{@R0N
1 | 0

0 | 5009

0

2017-08-19 21:33
}{@R0N Последнее
./templates/default/images/folder_dl.gif Игровые и Компьютерные журналы Журнал | UPgrade №12 (798) (август 2017) [PDF] }{@R0N
1 | 0

0 | 8707

2

2017-08-21 09:17
}{@R0N Последнее
Показать сообщения:    
Ответить на тему

Текущее время: Сегодня 12:57

Часовой пояс: GMT + 3



Вы не можете начинать темы
Вы не можете отвечать на сообщения
Вы не можете редактировать свои сообщения
Вы не можете удалять свои сообщения
Вы не можете голосовать в опросах
Вы не можете прикреплять файлы к сообщениям
Вы не можете скачивать файлы