Сегодня идет свободное скачивание без начисления Download

Самозванец / Impastor / Сезон: 2 / Серии: 1-1 из 10 (Дж. Кларк Мэтис / J. Clark Mathis, Виктор Нелли мл. / Victor Nelli J) [2016, США, Комедия, криминал, WEB-DL 720p] MVO (Четыре в квадрате) + Original

Ответить на тему
 
Автор
Сообщение

Omen ®

Стаж: 5 лет 6 месяцев

Сообщений: 186946

Торрент-статистика

Пост 07-Окт-2016 01:00

[Цитировать]

Самозванец / Impastor
Год выпуска: 2016
Страна: США
Жанр: Комедия, криминал
Продолжительность: ~ 00:23:00
Перевод: Любительский (многоголосый закадровый) Четыре в квадрате
Режиссёр: Дж. Кларк Мэтис / J. Clark Mathis, Виктор Нелли мл. / Victor Nelli J
В ролях: Майкл Розенбаум /Michael Rosenbaum/, Сара Рю /Sara Rue/, Мирчи Монро /Mircea Monroe/, Давид Раш /David Rasche/, Майк Козински /Mike Kosinski/, Линдси Горт /Lindsey Gort/
Описание: Пройдоха Бадди Доббс попадает в довольно непростую ситуацию. Наш герой задолжал внушительную сумму денег, и теперь за ним охотятся вышибалы, работающие на кредиторов. Ему ничего другого не остаётся, кроме как покончить с собой. Бадди в один миг решает покончить жизнь самоубийством. Но, не всё так просто, и некоторые обстоятельства изменяют все его планы. Может к счастью, а может и нет, но он попадает в одно чудесное место. Это маленький, процветающий провинциальный городишко, где его ожидает довольно интересная, и достаточно непростая работа, которая изменит буквально всё в его, казалось бы, закончившейся жизни.
Релиз от:
Сэмпл: https://yadi.sk/d/KzrfBwxVwP4Rm
Качество: WEB-DL 720p
Контейнер: MKV
Видео: AVC, 1280x718 (16:9), 23,976 fps, ~4026 kbps
Аудио: AAC, 48,0 КГц, 2 ch, 192 kbps - Rus
Аудио 2: AAC, 48,0 КГц, 2 ch, 157 kbps - Eng
Субтитры: Отсутствуют

Список серий

1. Дьявол спустился в Ладнер / The Devil Went Down to Ladner

MediaInfo

Код:
Unique ID                                : 193357386284905168830998064790979813834 (0x9177472C6A003FEA801A8DCC896521CA)
Complete name                            : D:\Раздачи\Самозванец (2 Сезон)\Impastor.S02E01.Четыре в квадрате.720p.WEB-DL.mkv.mkv
Format                                   : Matroska
Format version                           : Version 4 / Version 2
File size                                : 695 Мбайт
Duration                                 : 22 м. 12 с.
Overall bit rate                         : 4376 Кбит/сек
Encoded date                             : UTC 2016-10-06 19:08:05
Writing application                      : mkvmerge v8.2.0 ('World of Adventure') 64bit
Writing library                          : libebml v1.3.1 + libmatroska v1.4.2
Cover                                    : Yes
Attachments                              : small_cover.jpg / cover.jpg / cover_land.jpg / small_cover_land.jpg
Видео
ID                                       : 1
Format                                   : AVC
Format/Info                              : Advanced Video Codec
Format profile                           : High@L3.1
Format settings, CABAC                   : Нет
Format settings, ReFrames                : 2 кадра
Codec ID                                 : V_MPEG4/ISO/AVC
Duration                                 : 22 м. 11 с.
Bit rate                                 : 4026 Кбит/сек
Width                                    : 1280 пикселей
Height                                   : 718 пикселей
Display aspect ratio                     : 16:9
Frame rate mode                          : Постоянный
Frame rate                               : 23,976 (24000/1001) кадра/сек
Color space                              : YUV
Chroma subsampling                       : 4:2:0
Bit depth                                : 8 бит
Scan type                                : Прогрессивная
Bits/(Pixel*Frame)                       : 0.183
Stream size                              : 639 Мбайт (92%)
Language                                 : English
Default                                  : Да
Forced                                   : Нет
Color range                              : Limited
Color primaries                          : BT.709
Transfer characteristics                 : BT.709
Matrix coefficients                      : BT.709
Аудио #1
ID                                       : 2
Format                                   : AAC
Format/Info                              : Advanced Audio Codec
Format profile                           : LC
Codec ID                                 : A_AAC
Duration                                 : 22 м. 12 с.
Bit rate                                 : 192 Кбит/сек
Channel(s)                               : 2 канала
Channel positions                        : Front: L R
Sampling rate                            : 48,0 КГц
Frame rate                               : 46,875 кадров/сек (1024 spf)
Compression mode                         : С потерями
Stream size                              : 30,1 Мбайт (4%)
Language                                 : Russian
Default                                  : Да
Forced                                   : Нет
Аудио #2
ID                                       : 3
Format                                   : AAC
Format/Info                              : Advanced Audio Codec
Format profile                           : LC
Codec ID                                 : A_AAC
Duration                                 : 22 м. 12 с.
Bit rate                                 : 157 Кбит/сек
Channel(s)                               : 2 канала
Channel positions                        : Front: L R
Sampling rate                            : 48,0 КГц
Frame rate                               : 46,875 кадров/сек (1024 spf)
Compression mode                         : С потерями
Stream size                              : 24,9 Мбайт (4%)
Language                                 : English
Default                                  : Нет
Forced                                   : Нет

Скриншоты

Внимание! Раздача ведётся путём добавления новых серий

Внимание! Раздача ведётся путём добавления новых серий; при каждом добавлении создаётся новый торрент. Чтобы начать докачку новой серии, пользователям необходимо сделать следующее:
(1) остановить скачивание,
(2) удалить старый торрент у себя из клиента (старые серии удалять не надо),
(3) скачать новый торрент и запустить его у себя в клиенте вместо старого, при этом указать клиенту путь в старую папку куда и должно происходить скачивание новых серий.
Ваш клиент при этом должен произвести хеширование (проверку) старой папки (если не производит сам - помогите ему сделать это), и будет докачивать только те серии которых у вас ещё нет. Старые серии при этом не удаляются, а продолжают раздаваться!
Eсли вы уже удалили старые серии, то предотвратить повторную закачку старых серий можно, отжав галочку в соответствующих местах при запуске нового торрента. По возможности, желательно не удалять старые серии как можно дольше чтобы релизёр не столько продолжал раздавать старые серии, а смог сконцентрироваться на новых.
P.S. Серии будут выходить по мере записи всех актёров озвучания. Спасибо, что выбрали нашу студию!
Вне форума [Профиль] [ЛС]
Показать сообщения:    
Ответить на тему

Текущее время: Сегодня 07:25

Часовой пояс: GMT + 3



Вы не можете начинать темы
Вы не можете отвечать на сообщения
Вы не можете редактировать свои сообщения
Вы не можете удалять свои сообщения
Вы не можете голосовать в опросах
Вы не можете прикреплять файлы к сообщениям
Вы не можете скачивать файлы