Сегодня идет свободное скачивание без начисления Download

Элементарно / Elementary / Сезон: 5 / Серии: 1 из 24 (Джон Полсон, Сет Манн, Эндрю Бернштейн) [2016, США, драма, криминал, детектив, WEB-DL 720p] MVO (LostFilm) + Original + Eng Subs

Ответить на тему
 
Автор
Сообщение

Omen ®

Стаж: 5 лет 9 месяцев

Сообщений: 184402

Торрент-статистика

Пост 07-Окт-2016 01:00

[Цитировать]

Элементарно / Elementary- Год выпуска: 2016
Страна: США
Жанр: драма, криминал, детектив
Продолжительность: ~00:43:00-Перевод: Профессиональный (многоголосый закадровый) | LostFilm-Режиссёр: Джон Полсон, Сет Манн, Эндрю Бернштейн-В ролях: Джонни Ли Миллер, Люси Лью, Эйдан Куинн, Джон Майкл Хилл, Рис Иванс, Натали Дормер, Ато Эссонда, Джордан Гелбер, Шон Пертуи, Линда Эмонд-Описание: Британский сыщик Шерлок Холмс — бывший наркоман, который был отправлен в Нью-Йорк на лечение в реабилитационный центр, а по завершении лечения остался в Бруклине как консультант Нью-Йоркской полиции. В расследованиях ему помогает его компаньон-наблюдатель доктор Джоан Ватсон, нанятая его отцом.-- by marchelush-Качество: WEB-DL 720p
Контейнер: MKV
Видео: 1280x720 at 23.976 fps, MPEG-4 AVC, ~4100 kbps avg, 0.186 bit/pixel
Аудио: 48 kHz, AC3, 3/2 (L,C,R,l,r) + LFE ch, ~384.00 kbps avg | LostFilm
Аудио: 48 kHz, AC3, 3/2 (L,C,R,l,r) + LFE ch, ~384.00 kbps avg
Субтитры: English-

Список серий

01. Двойное помешательство / Folie à Deux
-

MediaInfo

ОбщееУникальный идентификатор : 194551392413332344067231593628308422328 (0x925D3C387FC0B5A2BA1E8DDC95BD3EB8)Полное имя : E:\Movies\Elementary (Season 5) WEB-DL 720p\Elementary.S05E01.720p.WEB-DL.Rus.Eng-HDCLUB.mkvФормат : MatroskaВерсия формата : Version 4 / Version 2Размер файла : 1,46 ГбайтПродолжительность : 42 м. 55 с.Общий поток : 4884 Кбит/секНазвание фильма : Elementary (2016) - Release for HDCLUBДата кодирования : UTC 2016-10-06 09:22:54Программа кодирования : mkvmerge v8.1.0 ('Psychedelic Postcard') 32bitБиблиотека кодирования : libebml v1.3.1 + libmatroska v1.4.2
ВидеоИдентификатор : 1Формат : AVCФормат/Информация : Advanced Video CodecПрофиль формата : High@L3.1Параметр CABAC формата : НетПараметр ReFrames формата : 2 кадраИдентификатор кодека : V_MPEG4/ISO/AVCПродолжительность : 42 м. 55 с.Битрейт : 4114 Кбит/секШирина : 1280 пикселейВысота : 720 пикселейСоотношение сторон : 16:9Режим частоты кадров : ПостоянныйЧастота кадров : 23,976 (24000/1001) кадра/секЦветовое пространство : YUVСубдискретизация насыщенности : 4:2:0Битовая глубина : 8 битТип развёртки : ПрогрессивнаяБит/(Пиксели*Кадры) : 0.186Размер потока : 1,23 Гбайт (84%)Заголовок : 01. Двойное помешательство (Folie à Deux)Язык : EnglishDefault : ДаForced : НетЦветовой диапазон : LimitedОсновные цвета : BT.709Характеристики трансфера : BT.709Коэффициенты матрицы : BT.709
Аудио #1Идентификатор : 2Формат : AC-3Формат/Информация : Audio Coding 3Расширение режима : CM (complete main)Параметр Endianness формата : BigИдентификатор кодека : A_AC3Продолжительность : 42 м. 55 с.Вид битрейта : ПостоянныйБитрейт : 384 Кбит/секКаналы : 6 каналовРасположение каналов : Front: L C R, Side: L R, LFEЧастота : 48,0 КГцЧастота кадров : 31,250 кадров/сек (1536 spf)Метод сжатия : С потерямиРазмер потока : 118 Мбайт (8%)Заголовок : LostFilmЯзык : RussianDefault : ДаForced : Нет
Аудио #2Идентификатор : 3Формат : AC-3Формат/Информация : Audio Coding 3Расширение режима : CM (complete main)Параметр Endianness формата : BigИдентификатор кодека : A_AC3Продолжительность : 42 м. 55 с.Вид битрейта : ПостоянныйБитрейт : 384 Кбит/секКаналы : 6 каналовРасположение каналов : Front: L C R, Side: L R, LFEЧастота : 48,0 КГцЧастота кадров : 31,250 кадров/сек (1536 spf)Метод сжатия : С потерямиРазмер потока : 118 Мбайт (8%)Язык : EnglishDefault : НетForced : Нет
ТекстИдентификатор : 4Формат : UTF-8Идентификатор кодека : S_TEXT/UTF8Идентификатор кодека/Информация : UTF-8 Plain TextПродолжительность : 42 м. 17 с.Битрейт : 104 бит/секCount of elements : 974Размер потока : 32,4 Кбайт (0%)Язык : EnglishDefault : НетForced : Нет
-

Скриншоты

-

Внимание! Раздача ведётся путём добавления новых серий

Внимание! Раздача ведётся путём добавления новых серий; при каждом добавлении создаётся новый торрент. Чтобы начать докачку новой серии, пользователям необходимо сделать следующее:
(1) остановить скачивание,
(2) удалить старый торрент у себя из клиента (старые серии удалять не надо),
(3) скачать новый торрент и запустить его у себя в клиенте вместо старого, при этом указать клиенту путь в старую папку куда и должно происходить скачивание новых серий.
Ваш клиент при этом должен произвести хеширование (проверку) старой папки (если не производит сам - помогите ему сделать это), и будет докачивать только те серии которых у вас ещё нет. Старые серии при этом не удаляются, а продолжают раздаваться!
Eсли вы уже удалили старые серии, то предотвратить повторную закачку старых серий можно, отжав галочку в соответствующих местах при запуске нового торрента. По возможности, желательно не удалять старые серии как можно дольше чтобы релизёр не столько продолжал раздавать старые серии, а смог сконцентрироваться на новых.
-
Вне форума [Профиль] [ЛС]
Показать сообщения:    
Ответить на тему

Текущее время: Сегодня 20:27

Часовой пояс: GMT + 3



Вы не можете начинать темы
Вы не можете отвечать на сообщения
Вы не можете редактировать свои сообщения
Вы не можете удалять свои сообщения
Вы не можете голосовать в опросах
Вы не можете прикреплять файлы к сообщениям
Вы не можете скачивать файлы