Сегодня идет свободное скачивание без начисления Download

Драконы: Всадники Олуха / Dragons: Riders of Berk / Сезон: 1 / Серии: 1-4 (из 20) (Энтони Белл / Anthony Bell, Джон Санфорд / John Sanford, Луи Дел Кармен / Louie del Carmen) [2012, фэнтези, приключения, комедия, семейный, WEB-DL 720p] DVO + rus sub

Ответить на тему
 
Автор
Сообщение

Meshanik ®

Пол:

Стаж: 5 лет 6 месяцев

Сообщений: 4950

Откуда: Los Angeles

Торрент-статистика

Пост 21-Сен-2012 21:01

[Цитировать]


Драконы: Всадники Олуха
Серии 4 (20)
-- Год выпуска: 2012
Страна: США, DreamWorks Animation SKG
Жанр: фэнтези, приключения, комедия, семейный
Продолжительность: ~22 мин. серия
Перевод: Любительский (двухголосый закадровый) NoMorePlayTV
Субтитры: Русские (Kodar, Serimon, Draggy)--Режиссёры: Энтони Белл / Anthony Bell, Джон Санфорд / John Sanford, Луи Дел Кармен / Louie del Carmen
В ролях: Джей Барушель (Иккинг / Hiccup), Америка Феррера (Астрид / Astrid), Кристофер Минц-Плассе (Рыбьеног / Fishlegs), ТиДжей Миллер (Задирака / Tuffnut), Нолан Норт (Стоик / Stoick), Крис Эджерли (Плевака / Gobber), Зак Перлман (Сморкала / Snotlout), Джули Маркус (Забияка / Ruffnut), Тим Конуэй (Мульч / Mulch), Томас Ф. Уилсон (Вёдрик / Bucket), Стивен Рут (Плесень / Mildew), Марк Хэмилл (Элвин Вероломный / Alvin the Treacherous)--Описание: Продолжение приключений Иккинга и его дракона Беззубика на острове Олух вместе с группой драконьих тренеров, каждый из которых теперь имеет своего собственного дракона. Сериал начинается после событий полнометражного фильма "Как приручить дракона", и отправляет Иккинга, его верного дракона Беззубика и остальных ребят в другие места, где они откроют совершенно новых драконов, найдут новые приключения и будут сражаться с новыми злодеями. А во время тренировок, ребята установят особые дружеские связи со своими драконами, изучив уникальные особенности каждого из них.-- --Качество видео: WEB-DL 720p
Формат видео: mkv
Видео кодек: AVC
Аудио кодек: AC3
Видео: AVC, 1280x720, 23.976fps, ~4000Kbps
Аудио#1: AC3, 48 kHz, 6 ch, 384 kbps
Аудио#2: AC3, 48 kHz, 6 ch, 384 kbps--

MediaInfo

Код:
General
Unique ID                      : 198144973014486694107963936217638003412 (0x9511556C6F6A3E0196B6982C10FE62D4)
Complete name                  : D:\Торенты\Dragons 720p\dragons.s01e01.web-dl.rus.eng.nomoreplaytv.mkv
Format                         : Matroska
Format version                 : Version 2
File size                      : 782 MiB
Duration                       : 22mn 34s
Overall bit rate               : 4 843 Kbps
Encoded date                   : UTC 2012-09-14 13:19:14
Writing application            : mkvmerge v5.6.0 ('Kenya Kane') built on May 27 2012 16:44:04
Writing library                : libebml v1.2.3 + libmatroska v1.3.0
Video
ID                             : 1
Format                         : AVC
Format/Info                    : Advanced Video Codec
Format profile                 : [url=mailto:High@L3.1]High@L3.1[/url]
Format settings, CABAC         : No
Format settings, ReFrames      : 2 frames
Codec ID                       : V_MPEG4/ISO/AVC
Duration                       : 22mn 34s
Bit rate                       : 3 978 Kbps
Width                          : 1 280 pixels
Height                         : 720 pixels
Display aspect ratio           : 16:9
Frame rate mode                : Constant
Frame rate                     : 23.976 fps
Color space                    : YUV
Chroma subsampling             : 4:2:0
Bit depth                      : 8 bits
Scan type                      : Progressive
Bits/(Pixel*Frame)             : 0.180
Stream size                    : 642 MiB (82%)
Language                       : English
Default                        : Yes
Forced                         : No
Color primaries                : BT.709
Transfer characteristics       : BT.709
Matrix coefficients            : BT.709
Audio #1
ID                             : 2
Format                         : AC-3
Format/Info                    : Audio Coding 3
Mode extension                 : CM (complete main)
Format settings, Endianness    : Big
Codec ID                       : A_AC3
Duration                       : 22mn 34s
Bit rate mode                  : Constant
Bit rate                       : 384 Kbps
Channel(s)                     : 6 channels
Channel positions              : Front: L C R, Side: L R, LFE
Sampling rate                  : 48.0 KHz
Bit depth                      : 16 bits
Compression mode               : Lossy
Stream size                    : 62.0 MiB (8%)
Language                       : Russian
Default                        : Yes
Forced                         : No
Audio #2
ID                             : 3
Format                         : AC-3
Format/Info                    : Audio Coding 3
Mode extension                 : CM (complete main)
Format settings, Endianness    : Big
Codec ID                       : A_AC3
Duration                       : 22mn 34s
Bit rate mode                  : Constant
Bit rate                       : 384 Kbps
Channel(s)                     : 6 channels
Channel positions              : Front: L C R, Side: L R, LFE
Sampling rate                  : 48.0 KHz
Bit depth                      : 16 bits
Compression mode               : Lossy
Stream size                    : 62.0 MiB (8%)
Language                       : English
Default                        : No
Forced                         : No

Список серий

1. Как основать Драконью Академию / How to Start a Dragon Academy
2. Викинг напрокат / Viking for Hire
3. Зверинец / Animal House
4. Жуткая парочка / The Terrible Twos

Скриншоты

       

Внимание! Раздача ведётся путём добавления новых серий

Внимание! Раздача ведётся путём добавления новых серий; при каждом добавлении создётся новый торрент. Чтобы начать докачку новой серии, пользователям необходимо сделать следующее:
(1) остановить скачивание,
(2) удалить старый торрент у себя из клиента (старые серии удалять не надо),
(3) скачать новый торрент и запустить его у себя в клиенте вместо старого, при этом указать клиенту путь в старую папку куда и должно происходить скачивание новых серий.
Ваш клиент при этом должен произвести хеширование (проверку) старой папки (если не производит сам - помогите ему сделать это), и будет докачивать только те серии которых у вас ещё нет. Старые серии при этом не удаляются, а продолжают раздаваться!
Eсли вы уже удалили старые серии, то предотвратить повторную закачку старых серий можно, отжав галочку в соответсвующих местах при запуске нового торрента. По возможности, желательно не удалять старые серии как можно дольше, чтобы релизёр не столько продолжал раздавать старые серии, а смог сконцентрироваться на новых.
Вне форума [Профиль] [ЛС]

Dracula

Стаж: 4 года 1 месяц

Сообщений: 10091

Торрент-статистика

Пост 21-Сен-2012 21:31 (спустя 29 минут)

Топик был перенесен из форума Мультфильмы в форум Мультсериалы


kogesan
 
Похожие темы
Форум Тема Автор Торрент Отв. Посл. сообщение
./templates/default/images/folder_dl.gif Фантастика, фэнтези, ужасы, мистика Андрей Буревой | Драконоборец Империи (2017) [MP3] }{@R0N
1 | 0

0 | 20654

4

2017-11-13 22:04
}{@R0N Последнее
Показать сообщения:    
Ответить на тему

Текущее время: Сегодня 04:39

Часовой пояс: GMT + 3



Вы не можете начинать темы
Вы не можете отвечать на сообщения
Вы не можете редактировать свои сообщения
Вы не можете удалять свои сообщения
Вы не можете голосовать в опросах
Вы не можете прикреплять файлы к сообщениям
Вы не можете скачивать файлы